.
Авторизация | Регистрация
bitok.xyz
» » Дмитрий Смирнов | Knower School: Autodesk 3Ds Max. Базовый уровень (2018) PCRec [H.264] торрент скачать бесплатно


    Дмитрий Смирнов | Knower School: Autodesk 3Ds Max. Базовый уровень (2018) PCRec [H.264] торрент скачать бесплатно

    Дата: 30-09-2018, 05:00 | .torrent скачали: 159

    Дмитрий Смирнов | Knower School: Autodesk 3Ds Max. Базовый уровень (2018) PCRec [H.264]Автор (режиссер): Дмитрий Смирнов
    Производство: Knower online school
    Жанр: Обучающее видео, 3Д моделирование

    Описание

    На данном курсе вы в полном объеме изучите программный пакет Autodesk 3ds Max. Научитесь профессионально моделировать и выполнять фотореалистичную визуализацию ваших сцен.
    Каждый ученик получит навыки, которые позволят понять, в каком направлении хочется развиваться - архитектура, визуализация, игровое моделирование и так далее. После курса у вас уже будут работы в портфолио и дальше остается только совершенствовать навыки и достигать высот в направлении 3D графики, а мы вам в этом поможем!
    Продолжительность: 21: 43: 32
    Качество видео: PCRec
    Видео: AVC/H.264, 1600-1680x900-1048, ~651-898 Kbps
    Аудио: Другой, 2 ch, 161-192 Kbps
    Общее
    Полное имя : I: Knower school базовый курсЗанятие 23.Логические операции.mp4
    Формат : MPEG-4
    Профиль формата : Base Media
    Идентификатор кодека : isom (isom/iso2/avc1/mp41)
    Размер файла : 50, 9 Мбайт
    Продолжительность : 8 м. 40 с.
    Общий поток : 821 Кбит/сек
    Программа кодирования : Lavf57.56.100
    Видео
    Идентификатор : 1
    Формат : AVC
    Формат/Информация : Advanced Video Codec
    Профиль формата : Main@L4
    Настройки формата : CABAC/4 Ref Frames
    Параметр CABAC формата : Да
    Параметр RefFrames формата : 4 кадра
    Идентификатор кодека : avc1
    Идентификатор кодека/Информация : Advanced Video Coding
    Продолжительность : 8 м. 40 с.
    Битрейт : 651 Кбит/сек
    Ширина : 1600 пикселей
    Высота : 900 пикселей
    Соотношение сторон : 16: 9
    Режим частоты кадров : Переменный
    Частота кадров : 30, 000 кадров/сек
    Минимальная частота кадров : 30, 000 кадров/сек
    Максимальная частота кадров : 83, 102 кадра/сек
    Цветовое пространство : YUV
    Субдискретизация насыщенности : 4: 2: 0
    Битовая глубина : 8 бит
    Тип развёртки : Прогрессивная
    Бит/(Пиксели*Кадры) : 0.015
    Размер потока : 40, 4 Мбайт (79%)
    Библиотека кодирования : x264 core 142 r2479 dd79a61
    Настройки программы : cabac=1/ref=1/deblock=1: 0: 0/analyse=0x1: 0x111/me=hex/subme=2/psy=1/psy_rd=1.00: 0.00/mixed_ref=0/me_range=16/chroma_me=1/trellis=0/8x8dct=0/cqm=0/deadzone=21, 11/fast_pskip=1/chroma_qp_offset=0/threads=6/lookahead_threads=2/sliced_threads=0/nr=0/decimate=1/interlaced=0/bluray_compat=0/constrained_intra=0/bframes=3/b_pyramid=2/b_adapt=1/b_bias=0/direct=1/weightb=1/open_gop=0/weightp=1/keyint=300/keyint_min=30/scenecut=40/intra_refresh=0/rc_lookahead=10/rc=crf/mbtree=1/crf=20.0/qcomp=0.60/qpmin=0/qpmax=69/qpstep=4/vbv_maxrate=20000/vbv_bufsize=25000/crf_max=0.0/nal_hrd=none/filler=0/ip_ratio=1.40/aq=1: 1.00
    Цветовой диапазон : Limited
    Основные цвета : BT.709
    Характеристики трансфера : BT.709
    Коэффициенты матрицы : BT.709
    Codec configuration box : avcC
    Аудио
    Идентификатор : 2
    Формат : AAC LC
    Формат/Информация : Advanced Audio Codec Low Complexity
    Идентификатор кодека : mp4a-40-2
    Продолжительность : 8 м. 40 с.
    Вид битрейта : Постоянный
    Битрейт : 161 Кбит/сек
    Каналы : 2 канала
    Channel layout : L R
    Частота : 48, 0 КГц
    Частота кадров : 46, 875 кадров/сек (1024 SPF)
    Метод сжатия : С потерями
    Размер потока : 9, 96 Мбайт (20%)
    Default : Да
    AlternateGroup/String : 1
    I: Knower school базовый курсknower school бесплатный онлайн курсурок 1.avi
    Формат : AVI
    Формат/Информация : Audio Video Interleave
    Размер файла : 707 Мбайт
    Продолжительность : 1 ч. 29 м.
    Общий поток : 1101 Кбит/сек
    Программа кодирования : BandiAviMuxer 1.0
    Видео
    Идентификатор : 0
    Формат : AVC
    Формат/Информация : Advanced Video Codec
    Профиль формата : Main@L4
    Настройки формата : CABAC/1 Ref Frames
    Параметр CABAC формата : Да
    Параметр RefFrames формата : 1 кадр
    Идентификатор кодека : H264
    Продолжительность : 1 ч. 29 м.
    Битрейт : 898 Кбит/сек
    Ширина : 1680 пикселей
    Высота : 1048 пикселей
    Соотношение сторон : 16: 10
    Частота кадров : 15, 000 кадров/сек
    Цветовое пространство : YUV
    Субдискретизация насыщенности : 4: 2: 0
    Битовая глубина : 8 бит
    Тип развёртки : Прогрессивная
    Бит/(Пиксели*Кадры) : 0.034
    Размер потока : 577 Мбайт (82%)
    Аудио
    Идентификатор : 1
    Формат : MPEG Audio
    Версия формата : Version 1
    Профиль формата : Layer 2
    Идентификатор кодека : 50
    Продолжительность : 1 ч. 29 м.
    Вид битрейта : Постоянный
    Битрейт : 192 Кбит/сек
    Каналы : 2 канала
    Частота : 48, 0 КГц
    Метод сжатия : С потерями
    Размер потока : 123 Мбайт (17%)
    Выравнивание : Соединение по промежуткам
    Продолжительность промежутка : 24 мс. (0, 36 видеокадр)
    Время предзагрузки промежутка : 48 мс.


    Дмитрий Смирнов | Knower School: Autodesk 3Ds Max. Базовый уровень (2018) PCRec [H.264]
    Рейтинг →
     (голосов: 1, оценка 3/5, голосовать можно 1 раз )

    Другие торренты по теме:

  • Дмитрий Смирнов и др. | В схватках с врагом (1976) [FB2] скачать через торрент бесплатно
  • Дмитрий Смирнов | Knower School: Архитектурное моделирование и визуализация (2018) PCRec [H.264]
  • Дмитрий Смирнов | Knower School - бесплатный урок по визуализации [Архивиз] (2018) PCRec [H.264]


    • Комментарии (0):

      Информация

      Информация

        Посетители, находящиеся в группе Гости, не могут оставлять комментарии в данной новости.

        ↓ Меню




        ↓ Опрос

        Вы добавили сайт в закладки?
        Да
        Нет


        Популярное