.
Авторизация | Регистрация

bitok.xyz

» » Роман Шацкий | Эксперт по конкурентной разведке (2019) PCRec [H.264 / 720p-LQ] торрент скачать бесплатно


    Роман Шацкий | Эксперт по конкурентной разведке (2019) PCRec [H.264 / 720p-LQ] торрент скачать бесплатно

    Дата: 18-10-2019, 05:00 | .torrent скачали: 6

    Роман Шацкий | Эксперт по конкурентной разведке (2019) PCRec [H.264 / 720p-LQ]Автор (режиссер): Роман Шацкий
    Производство: Udemy
    Жанр: Конкурентная разведка, OSINT

    Описание

    Знания о Ваших конкурентах - это второй по важности блок информации после клиентов, который необходим для успеха на рынке. В современном мире существуют большие возможности по получению данных о деятельности компании, однако большинство маркетологов останавливаются только на анализе сайтов конкурентов. А в обучающих курсах конкурентная разведка приравнивается к изучению сайтов, социальных сетей и покупке платных рейтингов Mediascope и Nielsen.
    Пройдя этот курс вы научитесь проводить исследования конкурентов, изучите основы конкурентной разведки, рассмотрите 3 метода сбора данных на практике и научитесь проводить полноценный конкурентный анализ на основе полевых данных.
    Продолжительность: 01: 50: 07
    Качество видео: PCRec
    Видео: AVC/H.264, 1280x720, ~~735-1652 Kbps
    Аудио: AAC, 2 ch, 128 Kbps
    Общее
    Полное имя : E: torrentUdemy - Эксперт по конкурентной разведке (2019)Раздел 1. Основы конкурентной разведки1. Введение.mp4
    Формат : MPEG-4
    Профиль формата : Base Media
    Идентификатор кодека : isom (isom/iso2/avc1/mp41)
    Размер файла : 23, 2 Мбайт
    Продолжительность : 3 м. 43 с.
    Общий поток : 871 Кбит/сек
    Программа кодирования : Lavf58.12.100
    Видео
    Идентификатор : 1
    Формат : AVC
    Формат/Информация : Advanced Video Codec
    Профиль формата : Main@L3.1
    Настройки формата : CABAC/4 Ref Frames
    Параметр CABAC формата : Да
    Параметр RefFrames формата : 4 кадра
    Параметр GOP формата : M=4, N=60
    Идентификатор кодека : avc1
    Идентификатор кодека/Информация : Advanced Video Coding
    Продолжительность : 3 м. 42 с.
    Битрейт : 735 Кбит/сек
    Номинальный битрейт : 3000 Кбит/сек
    Ширина : 1280 пикселей
    Высота : 720 пикселей
    Соотношение сторон : 16: 9
    Режим частоты кадров : Постоянный
    Частота кадров : 30, 000 кадров/сек
    Цветовое пространство : YUV
    Субдискретизация насыщенности : 4: 2: 0
    Битовая глубина : 8 бит
    Тип развёртки : Прогрессивная
    Бит/(Пиксели*Кадры) : 0.027
    Размер потока : 19, 5 Мбайт (84%)
    Библиотека кодирования : x264 core 148
    Настройки программы : cabac=1/ref=3/deblock=1: 0: 0/analyse=0x1: 0x111/me=umh/subme=6/psy=1/psy_rd=1.00: 0.00/mixed_ref=1/me_range=16/chroma_me=1/trellis=1/8x8dct=0/cqm=0/deadzone=21, 11/fast_pskip=1/chroma_qp_offset=-2/threads=22/lookahead_threads=3/sliced_threads=0/nr=0/decimate=1/interlaced=0/bluray_compat=0/constrained_intra=0/bframes=3/b_pyramid=2/b_adapt=1/b_bias=0/direct=1/weightb=1/open_gop=0/weightp=2/keyint=60/keyint_min=6/scenecut=0/intra_refresh=0/rc_lookahead=60/rc=cbr/mbtree=1/bitrate=3000/ratetol=1.0/qcomp=0.60/qpmin=0/qpmax=69/qpstep=4/vbv_maxrate=3000/vbv_bufsize=6000/nal_hrd=none/filler=0/ip_ratio=1.40/aq=1: 1.00
    Codec configuration box : avcC
    Аудио
    Идентификатор : 2
    Формат : AAC LC
    Формат/Информация : Advanced Audio Codec Low Complexity
    Идентификатор кодека : mp4a-40-2
    Продолжительность : 3 м. 43 с.
    Вид битрейта : Постоянный
    Битрейт : 128 Кбит/сек
    Каналы : 2 канала
    ChannelLayout : L R
    Частота : 48, 0 КГц
    Частота кадров : 46, 875 кадров/сек (1024 SPF)
    Метод сжатия : С потерями
    Размер потока : 3, 40 Мбайт (15%)
    Default : Да
    AlternateGroup/String : 1
    Скриншоты:


    Время раздачи: с 16: 30 до 20: 00 (до появления первых 3-5 скачавших)

    Роман Шацкий | Эксперт по конкурентной разведке (2019) PCRec [H.264/720p-LQ]
    Рейтинг →
     (голосов: 1, оценка 5/5, голосовать можно 1 раз )

    Другие торренты по теме:

  • Робер де Борон | Роман о Граале. Роман о Мерлине / LEstoire del Saint Graal. LEstoire de Merlin (1280) [PDF] [FR]
  • Роман Добрый | Иван Путилин и Клуб червонных валетов (сборник) (2014) [FB2] скачать через торрент бесплатно
  • Роман Злотников | КОМ (2014) [MP3]
  • Роман Масленников | СуперКонсалтинг-2: PR и маркетинг в сфере В2В-услуг (2013) [FB2] скачать через торрент бесплатно
  • Роман Глушков | Штурм (2014) [FB2] скачать через торрент бесплатно
  • Роман Холодов | Эффективный ремонт сотовых телефонов своими руками (2013) [DVDRip] скачать через торрент бесплатно
  • Роман Заря - Живая душа. Песни Михаила Круга (2014) [MP3|320 кб / с]<Chanson> скачать через торрент бесплатно
  • Любовь и Роман (2014) HDTVRip скачать через торрент бесплатно


    • Комментарии (0):

      Информация

      Информация

        Посетители, находящиеся в группе Гости, не могут оставлять комментарии в данной новости.

        ↓ Меню




        ↓ Опрос

        Вы добавили сайт в закладки?
        Да
        Нет


        Популярное