.
Авторизация | Регистрация

bitok.xyz

» » jsexpert | Понятный JavaScript [Beginner] (2017) PCRec [H.264 / 1080p-LQ] торрент скачать бесплатно


    jsexpert | Понятный JavaScript [Beginner] (2017) PCRec [H.264 / 1080p-LQ] торрент скачать бесплатно

    Дата: 8-11-2019, 05:00 | .torrent скачали: 0

    jsexpert | Понятный JavaScript [Beginner] (2017) PCRec [H.264 / 1080p-LQ]Автор (режиссер): Евгений Калюжный
    Производство: jsexpert
    Жанр: Программирование, JavaScript

    Описание

    Курс Понятный JavaScript — это комплексная программа обучения, которая позволит тебе полностью изучить с нуля главный язык Frontend разработчика. Уже через 3 месяца ты будешь знать JavaScript на очень достойном уровне.
    Проверенный временем курс проведет вас от самых основ (история возникновения языка, типы данных, циклы, условия) до серьезных, продвинутых знаний (наследование, паттерны и ООП, ES6/ES7).
    Продолжительность: 09: 09: 47
    Качество видео: PCRec
    Видео: AVC/H.264, 1920x1080, ~346-5274 Kbps
    Аудио: AAC, 2 ch, 42-256 Kbps
    Общее
    Полное имя : .4 Типы данныхСессия #4.1. Понятный JavaScript. Типы данных.mp4
    Формат : MPEG-4
    Профиль формата : Base Media/Version 2
    Идентификатор кодека : mp42 (mp42/mp41/isom/avc1)
    Размер файла : 136 Мбайт
    Продолжительность : 22 м. 8 с.
    Режим общего битрейта : Переменный
    Общий поток : 858 Кбит/сек
    Дата кодирования : UTC 2017-12-17 10: 16: 23
    Дата пометки : UTC 2017-12-17 10: 16: 23
    Видео
    Идентификатор : 1
    Формат : AVC
    Формат/Информация : Advanced Video Codec
    Профиль формата : High@L4
    Настройки формата : CABAC/4 Ref Frames
    Параметр CABAC формата : Да
    Параметр RefFrames формата : 4 кадра
    Идентификатор кодека : avc1
    Идентификатор кодека/Информация : Advanced Video Coding
    Продолжительность : 22 м. 8 с.
    Битрейт : 598 Кбит/сек
    Ширина : 1920 пикселей
    Высота : 1080 пикселей
    Соотношение сторон : 16: 9
    Режим частоты кадров : Постоянный
    Частота кадров : 24, 000 кадра/сек
    Цветовое пространство : YUV
    Субдискретизация насыщенности : 4: 2: 0
    Битовая глубина : 8 бит
    Тип развёртки : Прогрессивная
    Бит/(Пиксели*Кадры) : 0.012
    Размер потока : 94, 7 Мбайт (70%)
    Библиотека кодирования : x264 core 152 r10 ba24899
    Настройки программы : cabac=1/ref=4/deblock=1: 0: 0/analyse=0x3: 0x113/me=hex/subme=8/psy=1/psy_rd=1.00: 0.00/mixed_ref=1/me_range=16/chroma_me=1/trellis=2/8x8dct=1/cqm=0/deadzone=21, 11/fast_pskip=1/chroma_qp_offset=-2/threads=34/lookahead_threads=5/sliced_threads=0/nr=0/decimate=1/interlaced=0/bluray_compat=0/stitchable=1/constrained_intra=0/bframes=3/b_pyramid=2/b_adapt=2/b_bias=0/direct=3/weightb=1/open_gop=0/weightp=2/keyint=infinite/keyint_min=24/scenecut=40/intra_refresh=0/rc_lookahead=50/rc=crf/mbtree=1/crf=20.0/qcomp=0.60/qpmin=5/qpmax=69/qpstep=4/vbv_maxrate=5500/vbv_bufsize=15000/crf_max=0.0/nal_hrd=none/filler=0/ip_ratio=1.40/aq=1: 1.00
    Дата кодирования : UTC 2017-12-17 10: 16: 23
    Дата пометки : UTC 2017-12-17 10: 16: 23
    Цветовой диапазон : Limited
    Основные цвета : BT.709
    Характеристики трансфера : BT.709
    Коэффициенты матрицы : BT.709
    Codec configuration box : avcC
    Аудио
    Идентификатор : 2
    Формат : AAC LC
    Формат/Информация : Advanced Audio Codec Low Complexity
    Идентификатор кодека : mp4a-40-2
    Продолжительность : 22 м. 8 с.
    Вид битрейта : Переменный
    Битрейт : 256 Кбит/сек
    Каналы : 2 канала
    ChannelLayout : L R
    Частота : 48, 0 КГц
    Частота кадров : 46, 875 кадров/сек (1024 SPF)
    Метод сжатия : С потерями
    Размер потока : 40, 5 Мбайт (30%)
    Дата кодирования : UTC 2017-12-17 10: 16: 23
    Дата пометки : UTC 2017-12-17 10: 16: 23
    Скриншоты:


    Время раздачи: 24/7 (круглосуточно) (до появления первых 3-5 скачавших)

    jsexpert | Понятный JavaScript [Beginner] (2017) PCRec [H.264/1080p-LQ]
    Рейтинг →
     (голосов: 1, оценка 3/5, голосовать можно 1 раз )

    Другие торренты по теме:

  • jsexpert | Понятный JavaScript [Middle] (2018) PCRec [H.264 / 720p-LQ]
  • jsexpert | Понятный JavaScript [Advanced] (2018) PCRec [H.264 / 720p-LQ]


    • Комментарии (0):

      Информация

      Информация

        Посетители, находящиеся в группе Гости, не могут оставлять комментарии в данной новости.

        ↓ Меню




        ↓ Опрос

        Вы добавили сайт в закладки?
        Да
        Нет


        Популярное