.
Авторизация | Регистрация
bitok.xyz
» » Артем Исламов | Курс по WordPress в формате онлайн-марафона (2019) PCRec [H.264 / 1080p-LQ] торрент скачать бесплатно


    Артем Исламов | Курс по WordPress в формате онлайн-марафона (2019) PCRec [H.264 / 1080p-LQ] торрент скачать бесплатно

    Дата: 20-11-2019, 05:01 | .torrent скачали: 18

    Артем Исламов | Курс по WordPress в формате онлайн-марафона (2019) PCRec [H.264 / 1080p-LQ]Автор (режиссер): Артем Исламов
    Производство: Glo Academy
    Жанр: Программирование, Верстка, WordPress

    Описание

    Освойте одну из самых популярных CMS и научитесь создавать от простых одностраничных сайтов с админкой до больших корпоративных сайтов и порталов.
    По нашей авторской методике обучились уже более 1000 человек, поэтому мы решили сделать этот курс доступным для всех!
    Мы сделали обучение максимально простым и комфортным, чтобы вы учились не за счет зазубривания правил и составления конспектов, а благодаря естественной среде, где все хотят одного – освоить новую профессию и начать зарабатывать деньги удалённо
    Продолжительность: 14: 08: 58
    Качество видео: PCRec
    Видео: AVC/H.264, 1920x1080, ~545 - 942 Kbps
    Аудио: AAC, 2 ch, 128 - 256 Kbps
    General
    Complete name : C: UsersUserDownloadsАртем Исламов Курс по WordPress в формате онлайн-марафона14 Урок № 12Урок № 12. Работа с дочерними темами.mp4
    Format : MPEG-4
    Format profile : Base Media/Version 2
    Codec ID : mp42 (mp42/mp41/isom/avc1)
    File size : 63.9 MiB
    Duration : 11 min 2 s
    Overall bit rate mode : Variable
    Overall bit rate : 808 kb/s
    Encoded date : UTC 2018-03-19 13: 37: 37
    Tagged date : UTC 2018-03-19 13: 37: 37
    Video
    ID : 1
    Format : AVC
    Format/Info : Advanced Video Codec
    Format profile : High@L4.2
    Format settings : CABAC/5 Ref Frames
    Format settings, CABAC : Yes
    Format settings, Reference : 5 frames
    Codec ID : avc1
    Codec ID/Info : Advanced Video Coding
    Duration : 11 min 2 s
    Bit rate : 545 kb/s
    Width : 1 920 pixels
    Height : 1 080 pixels
    Display aspect ratio : 16: 9
    Frame rate mode : Constant
    Frame rate : 60.000 FPS
    Color space : YUV
    Chroma subsampling : 4: 2: 0
    Bit depth : 8 bits
    Scan type : Progressive
    Bits/(Pixel*Frame) : 0.004
    Stream size : 43.0 MiB (67%)
    Writing library : x264 core 155 r10 7d0ff22
    Encoding settings : cabac=1/ref=5/deblock=1: 0: 0/analyse=0x3: 0x113/me=hex/subme=8/psy=1/psy_rd=1.00: 0.00/mixed_ref=1/me_range=16/chroma_me=1/trellis=2/8x8dct=1/cqm=0/deadzone=21, 11/fast_pskip=1/chroma_qp_offset=-2/threads=34/lookahead_threads=5/sliced_threads=0/nr=0/decimate=1/interlaced=0/bluray_compat=0/stitchable=1/constrained_intra=0/bframes=3/b_pyramid=2/b_adapt=2/b_bias=0/direct=3/weightb=1/open_gop=0/weightp=2/keyint=infinite/keyint_min=60/scenecut=40/intra_refresh=0/rc_lookahead=50/rc=crf/mbtree=1/crf=20.0/qcomp=0.60/qpmin=5/qpmax=69/qpstep=4/vbv_maxrate=5500/vbv_bufsize=15000/crf_max=0.0/nal_hrd=none/filler=0/ip_ratio=1.40/aq=1: 1.00
    Encoded date : UTC 2018-03-19 13: 37: 37
    Tagged date : UTC 2018-03-19 13: 37: 37
    Color range : Limited
    Color primaries : BT.709
    Transfer characteristics : BT.709
    Matrix coefficients : BT.709
    Codec configuration box : avcC
    Audio
    ID : 2
    Format : AAC LC
    Format/Info : Advanced Audio Codec Low Complexity
    Codec ID : mp4a-40-2
    Duration : 11 min 2 s
    Bit rate mode : Variable
    Bit rate : 256 kb/s
    Channel(s) : 2 channels
    Channel layout : L R
    Sampling rate : 48.0 kHz
    Frame rate : 46.875 FPS (1024 SPF)
    Compression mode : Lossy
    Stream size : 20.2 MiB (32%)
    Encoded date : UTC 2018-03-19 13: 37: 37
    Tagged date : UTC 2018-03-19 13: 37: 37
    General
    Complete name : C: UsersUserDownloadsАртем Исламов Курс по WordPress в формате онлайн-марафона25 Бонус. Найди заказы за 7 дней04Финал практикума Про заказы.mp4
    Format : MPEG-4
    Format profile : Base Media
    Codec ID : isom (isom/iso2/avc1/mp41)
    File size : 560 MiB
    Duration : 1 h 12 min
    Overall bit rate mode : Variable
    Overall bit rate : 1 073 kb/s
    Encoded date : UTC 2019-04-03 16: 47: 54
    Tagged date : UTC 2019-04-03 16: 47: 54
    Video
    ID : 1
    Format : AVC
    Format/Info : Advanced Video Codec
    Format profile : High@L4
    Format settings : CABAC/3 Ref Frames
    Format settings, CABAC : Yes
    Format settings, Reference : 3 frames
    Codec ID : avc1
    Codec ID/Info : Advanced Video Coding
    Duration : 1 h 12 min
    Bit rate : 942 kb/s
    Width : 1 920 pixels
    Height : 1 080 pixels
    Display aspect ratio : 16: 9
    Frame rate mode : Constant
    Frame rate : 30.000 FPS
    Color space : YUV
    Chroma subsampling : 4: 2: 0
    Bit depth : 8 bits
    Scan type : Progressive
    Bits/(Pixel*Frame) : 0.015
    Stream size : 491 MiB (88%)
    Title : ISO Media file produced by Google Inc. Created on: 04/03/2019.
    Encoded date : UTC 2019-04-03 16: 47: 54
    Tagged date : UTC 2019-04-03 16: 47: 54
    Color range : Limited
    Color primaries : BT.709
    Transfer characteristics : BT.709
    Matrix coefficients : BT.709
    Codec configuration box : avcC
    Audio
    ID : 2
    Format : AAC LC
    Format/Info : Advanced Audio Codec Low Complexity
    Codec ID : mp4a-40-2
    Duration : 1 h 12 min
    Bit rate mode : Variable
    Bit rate : 128 kb/s
    Channel(s) : 2 channels
    Channel layout : L R
    Sampling rate : 44.1 kHz
    Frame rate : 43.066 FPS (1024 SPF)
    Compression mode : Lossy
    Stream size : 66.8 MiB (12%)
    Title : ISO Media file produced by Google Inc. Created on: 04/03/2019.
    Default : Yes
    Alternate group : 1
    Encoded date : UTC 2019-04-03 16: 47: 50
    Tagged date : UTC 2019-04-03 16: 47: 50
    Смотрите видеоуроки
    В каждом уроке коротко и содержательно раскрывается одна тема и дается нужная информация для закрепления материала. Уроки без воды – только суть.
    Всё показывается на экране как пошаговая инструкция.
    Выполняете домашнее задание
    Задания помогают усвоить материал и закрепить знания. Есть легкие домашние задания и усложненные. Легкие можно выполнить в течение 1 часа. На сложные потребуется больше времени.
    Общаетесь в чате с учениками
    Есть чем поделиться или требуется помощь? Пишите в чат, где помимо кураторов находятся более опытные ученики, которые с удовольствием помогут и подскажут.Настройка рабочего пространства
    Весь софт, который будет нужен для прохождения курса
    Урок № 1
    Установка Wordpress. Обзор админ панели
    Урок № 2
    Создание темы WordPress
    Доп. урок № 1
    Настройка рабочего пространства
    Урок № 3
    Регистрация меню в WordPress
    Урок № 4
    Сайдбары
    Урок № 5
    Вывод постов
    Урок № 6
    Еще раз про Хуки. Шорткоды
    Урок № 7
    Шаблоны постов и страниц
    Урок № 8
    Свои типы записей
    Урок № 9
    Произвольные поля
    Урок № 10
    Таксономии
    Доп. урок № 2
    Ссылки на предыдущие и следующие статьи
    Урок № 11
    Формы в Wordpress
    Урок № 12
    Работа с дочерними темами
    Урок № 13
    SEO для WordPress
    Урок № 14
    Оптимизация скорости загрузки сайта (GPSI)
    Урок № 15
    Создание темы на фреймворке Unison
    Доп. урок № 3
    Поиск клиентов и продажа своих услуг
    Бонус - урок № 1
    Установка Google Карт на сайт
    Выпускной проект
    Урок по безопасности Wordpress № 1
    Урок по безопасности Wordpress № 2
    Вредоносный код на Wordpress
    Пользователи и роли. Как добавить новую роль WordpressСкучной теории и тонны воды, которая не нужна на практике и забывается сразу после урока
    Непонятных правил
    Скучных и неинтересных упражненийПростые и понятные видео-уроки по 15 минут
    Точные инструкции и чек-листы
    Практика, после которой вы научитесь натягивать верстку самостоятельно
    Уроки, за счет которых вы научитесь общаться с заказчиками
    Упражнения, инструменты и секреты, о которых все молчат! А вы их узнаете!Скриншоты:


    Время раздачи: 24/7 (круглосуточно) (до появления первых 3-5 скачавших)

    Артем Исламов | Курс по WordPress в формате онлайн-марафона (2019) PCRec [H.264/1080p-LQ]
    Рейтинг →
     (голосов: 1, оценка 5/5, голосовать можно 1 раз )

    Другие торренты по теме:

  • Артем Исламов | Курс по jQuery для верстальщиков [JQuery Killer] (2017) PCRec [H.264 / 720p-LQ]


    • Комментарии (0):

      Информация

      Информация

        Посетители, находящиеся в группе Гости, не могут оставлять комментарии в данной новости.

        ↓ Меню




        ↓ Опрос

        Вы добавили сайт в закладки?
        Да
        Нет


        Популярное