.
Авторизация | Регистрация
bitok.xyz
» » Lynda.com | Изучение HTML Canvas / Learning HTML Canvas (2018) PCRec [H.264 / 720p-LQ] [EN] торрент скачать бесплатно

    Lynda.com | Изучение HTML Canvas / Learning HTML Canvas (2018) PCRec [H.264 / 720p-LQ] [EN] торрент скачать бесплатно

    Дата: 2-12-2019, 05:00 | .torrent скачали: 0

    Lynda.com | Изучение HTML Canvas / Learning HTML Canvas (2018) PCRec [H.264 / 720p-LQ] [EN]Автор (режиссер): Joe Marini
    Производство: Lynda.com
    Жанр: Программирование, JavaScript

    Описание

    JavaScript-разработчики могут создавать графику произвольной формы на поверхности для рисования, известной как Canvas. Технология Canvas открывает возможность создавать богатые нативные веб-приложения с 2D и 3D-графикой. В этом курсе инструктор Джо Марини представляет технические концепции Canvas и показывает, как выполнять операции рисования непосредственно на веб-странице.
    Продолжительность: 02: 10: 35
    Качество видео: PCRec
    Перевод: Отсутствует
    Язык озвучки: Английский
    Видео: AVC/H.264, 1280x720, ~85-445 Kbps
    Аудио: AAC, 2 ch, 128-160 Kbps
    General
    Complete name : 00_01. Graphics Programming with JavaScript.mp4
    Format : MPEG-4
    Format profile : Base Media/Version 2
    Codec ID : mp42
    File size : 4.86 MiB
    Duration : 1mn 6s
    Overall bit rate mode : Variable
    Overall bit rate : 617 Kbps
    Encoded date : UTC 2018-11-02 10: 36: 26
    Tagged date : UTC 2018-11-02 10: 36: 26
    Video
    ID : 1
    Format : AVC
    Format/Info : Advanced Video Codec
    Format profile : Main@L3.1
    Format settings, CABAC : Yes
    Format settings, ReFrames : 5 frames
    Codec ID : avc1
    Codec ID/Info : Advanced Video Coding
    Duration : 1mn 6s
    Bit rate mode : Variable
    Bit rate : 445 Kbps
    Maximum bit rate : 1 040 Kbps
    Width : 1 280 pixels
    Height : 720 pixels
    Display aspect ratio : 16: 9
    Frame rate mode : Constant
    Frame rate : 30.000 fps
    Color space : YUV
    Chroma subsampling : 4: 2: 0
    Bit depth : 8 bits
    Scan type : Progressive
    Bits/(Pixel*Frame) : 0.016
    Stream size : 3.51 MiB (72%)
    Writing library : x264 core 148
    Color primaries : BT.601 NTSC
    Transfer characteristics : BT.601
    Matrix coefficients : BT.601
    Language : English
    Audio
    ID : 2
    Format : AAC
    Format/Info : Advanced Audio Codec
    Format profile : LC
    Codec ID : 40
    Duration : 1mn 6s
    Bit rate mode : Constant
    Bit rate : 160 Kbps
    Channel(s) : 2 channels
    Channel positions : Front: L R
    Sampling rate : 48.0 KHz
    Compression mode : Lossy
    Stream size : 1.26 MiB (26%)

    Прямая ссылка скачивания через uTorrent


    Lynda.com | Изучение HTML Canvas/Learning HTML Canvas (2018) PCRec [H.264/720p-LQ] [EN]
    Рейтинг →
     (голосов: 1, оценка 4/5, голосовать можно 1 раз )

    Другие торренты по теме:



      Комментарии (0):

      Информация

      Информация

        Посетители, находящиеся в группе Гости, не могут оставлять комментарии в данной новости.

        ↓ Меню




        ↓ Опрос

        Вы добавили сайт в закладки?
        Да
        Нет


        Популярное