.
Авторизация | Регистрация
bitok.xyz
» » Udemy.com | Concept Art Essentials. Digital Painting From Scratch (2019) PCRec [H.264 / 720p-LQ] [EN] торрент скачать бесплатно


    Udemy.com | Concept Art Essentials. Digital Painting From Scratch (2019) PCRec [H.264 / 720p-LQ] [EN] торрент скачать бесплатно

    Дата: 15-01-2020, 05:00 | .torrent скачали: 0

    Udemy.com | Concept Art Essentials. Digital Painting From Scratch (2019) PCRec [H.264 / 720p-LQ] [EN]Автор (режиссер): Kemane Ba
    Производство: Udemy.com
    Жанр: Photoshop, Обучающее видео

    Описание

    В этом уроке вы освоите интуитивно понятный и эффективный подход к обучению, создавая концептуальную иллюстрацию от начала до конца в реальном времени. Если вы просто любите мир цифрового искусства и хотите укрепить свои знания или выйти из стадии новичка, это может быть очень полезным уроком для вас!
    Продолжительность: 04: 01: 28
    Качество видео: PCRec
    Язык озвучки: Английский
    Видео: AVC/H.264, 1280х720, ~2 490 Kbps
    Аудио: AAC, 2 ch, 127 Kbps
    General
    Complete name : Udemy.comConcept Art Essentials Digital Painting From Scratch1 - Intro.mp4
    Format : MPEG-4
    Format profile : Base Media
    Codec ID : isom (isom/iso2/avc1/mp41)
    File size : 25.6 MiB
    Duration : 1 min 21 s
    Overall bit rate mode : Variable
    Overall bit rate : 2 621 kb/s
    Writing application : Lavf56.30.100
    Video
    ID : 1
    Format : AVC
    Format/Info : Advanced Video Codec
    Format profile : Main@L3.1
    Format settings : CABAC/4 Ref Frames
    Format settings, CABAC : Yes
    Format settings, Reference frames : 4 frames
    Codec ID : avc1
    Codec ID/Info : Advanced Video Coding
    Duration : 1 min 21 s
    Bit rate : 2 490 kb/s
    Width : 1 280 pixels
    Height : 720 pixels
    Display aspect ratio : 16: 9
    Frame rate mode : Constant
    Frame rate : 25.000 FPS
    Color space : YUV
    Chroma subsampling : 4: 2: 0
    Bit depth : 8 bits
    Scan type : Progressive
    Bits/(Pixel*Frame) : 0.108
    Stream size : 24.3 MiB (95%)
    Writing library : Zencoder Video Encoding System
    Codec configuration box : avcC
    Audio
    ID : 2
    Format : AAC LC
    Format/Info : Advanced Audio Codec Low Complexity
    Codec ID : mp4a-40-2
    Duration : 1 min 21 s
    Bit rate mode : Variable
    Bit rate : 127 kb/s
    Maximum bit rate : 129 kb/s
    Channel(s) : 2 channels
    Channel layout : L R
    Sampling rate : 48.0 kHz
    Frame rate : 46.875 FPS (1024 SPF)
    Compression mode : Lossy
    Stream size : 1.24 MiB (5%)
    Default : Yes
    Alternate group : 1


    Udemy.com | Concept Art Essentials. Digital Painting From Scratch (2019) PCRec [H.264/720p-LQ] [EN]
    Рейтинг →
     (голосов: 1, оценка 4/5, голосовать можно 1 раз )

    Другие торренты по теме:

  • Udemy.com | Concept Art Masterclass. Create Conceptual Art from Scratch (2019) PCRec [H.264 / 720p-LQ] [EN]


    • Комментарии (0):

      Информация

      Информация

        Посетители, находящиеся в группе Гости, не могут оставлять комментарии в данной новости.

        ↓ Меню




        ↓ Опрос

        Вы добавили сайт в закладки?
        Да
        Нет


        Популярное