.
Авторизация | Регистрация
bitok.xyz
» » Lynda.com | JavaScript: Классы / JavaScript: Classes (2018) PCRec [H.264 / 720p-LQ] [EN] торрент скачать бесплатно


    Lynda.com | JavaScript: Классы / JavaScript: Classes (2018) PCRec [H.264 / 720p-LQ] [EN] торрент скачать бесплатно

    Дата: 15-01-2020, 05:00 | .torrent скачали: 0

    Lynda.com | JavaScript: Классы / JavaScript: Classes (2018) PCRec [H.264 / 720p-LQ] [EN]Автор (режиссер): Emmanuel Henri
    Производство: Lynda.com
    Жанр: Программирование, JavaScript, ECMAScript 6

    Описание

    В выпуске ECMAScript 2015 синтаксис классов был добавлен в JavaScript, что позволило разработчикам использовать наследование классов с помощью некоторых знакомых инструментов. Если вы новичок в этом языке или просто не знаете, как работают классы в ECMAScript 6 (ES6), то этот курс для вас.
    Продолжительность: 00: 37: 24
    Качество видео: PCRec
    Перевод: Отсутствует
    Язык озвучки: Английский
    Видео: AVC/H.264, 1280x720, ~107-494 Kbps
    Аудио: AAC, 2 ch, 128-160 Kbps
    General
    Complete name : 00_01. JavaScript classes demystified.mp4
    Format : MPEG-4
    Format profile : Base Media/Version 2
    Codec ID : mp42
    File size : 5.81 MiB
    Duration : 1mn 13s
    Overall bit rate mode : Variable
    Overall bit rate : 661 Kbps
    Encoded date : UTC 2018-06-25 19: 54: 23
    Tagged date : UTC 2018-06-25 19: 54: 23
    Video
    ID : 1
    Format : AVC
    Format/Info : Advanced Video Codec
    Format profile : Main@L3.1
    Format settings, CABAC : Yes
    Format settings, ReFrames : 5 frames
    Codec ID : avc1
    Codec ID/Info : Advanced Video Coding
    Duration : 1mn 13s
    Bit rate mode : Variable
    Bit rate : 494 Kbps
    Maximum bit rate : 1 000 Kbps
    Width : 1 280 pixels
    Height : 720 pixels
    Display aspect ratio : 16: 9
    Frame rate mode : Constant
    Frame rate : 30.000 fps
    Color space : YUV
    Chroma subsampling : 4: 2: 0
    Bit depth : 8 bits
    Scan type : Progressive
    Bits/(Pixel*Frame) : 0.018
    Stream size : 4.34 MiB (75%)
    Writing library : x264 core 129
    Language : English
    Audio
    ID : 2
    Format : AAC
    Format/Info : Advanced Audio Codec
    Format profile : LC
    Codec ID : 40
    Duration : 1mn 13s
    Bit rate mode : Constant
    Bit rate : 160 Kbps
    Nominal bit rate : 128 Kbps
    Channel(s) : 2 channels
    Channel positions : Front: L R
    Sampling rate : 48.0 KHz
    Compression mode : Lossy
    Stream size : 1.41 MiB (24%)
    Language : English


    Lynda.com | JavaScript: Классы/JavaScript: Classes (2018) PCRec [H.264/720p-LQ] [EN]
    Рейтинг →
     (голосов: 1, оценка 4/5, голосовать можно 1 раз )

    Другие торренты по теме:

  • Lynda.com | JavaScript: Область видимости / JavaScript: Scope (2018) PCRec [H.264 / 720p-LQ] [EN]
  • Lynda.com | JavaScript: Прототипы / JavaScript: Prototypes (2018) PCRec [H.264 / 720p-LQ] [EN]


    • Комментарии (0):

      Информация

      Информация

        Посетители, находящиеся в группе Гости, не могут оставлять комментарии в данной новости.

        ↓ Меню




        ↓ Опрос

        Вы добавили сайт в закладки?
        Да
        Нет


        Популярное