.
Авторизация | Регистрация
bitok.xyz
» » Udemy.com | Architectural Design & Animation in Blender (2019) PCRec [H.264 / 720p-LQ] [EN] торрент скачать бесплатно


    Udemy.com | Architectural Design & Animation in Blender (2019) PCRec [H.264 / 720p-LQ] [EN] торрент скачать бесплатно

    Дата: 15-01-2020, 05:00 | .torrent скачали: 0

    Udemy.com | Architectural Design & Animation in Blender (2019) PCRec [H.264 / 720p-LQ] [EN]Автор (режиссер): Thomas McDonald
    Производство: Udemy.com
    Жанр: Blender, Обучающее видео

    Описание

    Добро пожаловать на курс архитектурного дизайна и анимации в блендере. В этом курсе вы познакомитесь с процессом моделинга и анимации современного дома. Эти навыки будут полезны для 3D-художников, архитекторов и тех кто хочет создавать архитектурные конструкции и модели.
    Продолжительность: 05: 31: 59
    Качество видео: PCRec
    Язык озвучки: Английский
    Видео: AVC/H.264, 1280х720, ~232 Kbps
    Аудио: AAC, 2 ch, 124 Kbps
    General
    Complete name : Udemy.comArchitectural Design and Animation in Blender1. Base of House.mp4
    Format : MPEG-4
    Format profile : Base Media
    Codec ID : isom (isom/iso2/avc1/mp41)
    File size : 20.1 MiB
    Duration : 7 min 41 s
    Overall bit rate mode : Variable
    Overall bit rate : 365 kb/s
    Movie name : Udemy Video Asset
    Writing application : Lavf57.71.100
    Video
    ID : 1
    Format : AVC
    Format/Info : Advanced Video Codec
    Format profile : High@L3.1
    Format settings : CABAC/4 Ref Frames
    Format settings, CABAC : Yes
    Format settings, Reference frames : 4 frames
    Codec ID : avc1
    Codec ID/Info : Advanced Video Coding
    Duration : 7 min 41 s
    Bit rate : 232 kb/s
    Width : 1 280 pixels
    Height : 720 pixels
    Display aspect ratio : 16: 9
    Frame rate mode : Constant
    Frame rate : 30.000 FPS
    Color space : YUV
    Chroma subsampling : 4: 2: 0
    Bit depth : 8 bits
    Scan type : Progressive
    Bits/(Pixel*Frame) : 0.008
    Stream size : 12.8 MiB (64%)
    Writing library : x264 core 148
    Encoding settings : cabac=1/ref=2/deblock=1: -1: -1/analyse=0x3: 0x113/me=hex/subme=4/psy=1/psy_rd=1.00: 0.15/mixed_ref=0/me_range=16/chroma_me=1/trellis=1/8x8dct=1/cqm=0/deadzone=21, 11/fast_pskip=1/chroma_qp_offset=-1/threads=2/lookahead_threads=1/sliced_threads=0/nr=0/decimate=1/interlaced=0/bluray_compat=0/constrained_intra=0/bframes=3/b_pyramid=2/b_adapt=1/b_bias=0/direct=1/weightb=1/open_gop=0/weightp=1/keyint=250/keyint_min=25/scenecut=40/intra_refresh=0/rc_lookahead=20/rc=crf/mbtree=1/crf=23.0/qcomp=0.60/qpmin=0/qpmax=69/qpstep=4/vbv_maxrate=3000/vbv_bufsize=2000/crf_max=0.0/nal_hrd=none/filler=0/ip_ratio=1.40/aq=1: 1.00
    Codec configuration box : avcC
    Audio
    ID : 2
    Format : AAC LC
    Format/Info : Advanced Audio Codec Low Complexity
    Codec ID : mp4a-40-2
    Duration : 7 min 41 s
    Bit rate mode : Variable
    Bit rate : 124 kb/s
    Maximum bit rate : 128 kb/s
    Channel(s) : 2 channels
    Channel layout : L R
    Sampling rate : 48.0 kHz
    Frame rate : 46.875 FPS (1024 SPF)
    Compression mode : Lossy
    Stream size : 6.83 MiB (34%)
    Default : Yes
    Alternate group : 1


    Udemy.com | Architectural Design & Animation in Blender (2019) PCRec [H.264/720p-LQ] [EN]
    Рейтинг →
     (голосов: 1, оценка 4/5, голосовать можно 1 раз )

    Другие торренты по теме:

  • Udemy | Изучение взлома Wi-fi паролей / ключей (WEP / WPA / WPA2) / Learn Cracking Wi-fi Passwords / Keys (WEP / WPA / WPA2) (2015) PCRec [EN]
  • Udemy | Certified Metasploit Framework Professional (2014) PCRec [EN] скачать через торрент бесплатно
  • Udemy.com | Создание сайта с нуля с помощью HTML и CSS / Build Websites from Scratch with HTML & CSS (2014) PCRec [H.264 / 720p] [EN] скачать через торрент бесплатно
  • Udemy.com | Станьте web-разработчиком с нуля / Become a Web Developer from Scratch (2015) PCRec [H.264 / 720p] [EN] скачать через торрент бесплатно
  • Udemy.com | Infinite Skills | Написание безопасного PHP-кода. Уроки о защите. | Writing Secure PHP Code - PHP Security Tutorial (2014) PCRec [H.264 / 720p] [EN] скачать через торрент бесплатно
  • Udemy.com | Hacking School & IT Security Academy | Практический взлом сайтов | Website Hacking in Practice (2014) PCRec [H.264 / 720p] [EN] скачать через торрент бесплатно
  • Udemy | Kickstart ur Network Security Career: Checkpoint CCSA Course (2015) PCRec [H.264 / 720p] [EN] скачать через торрент бесплатно
  • Udemy | Brad Hussey | Bootstrap to WordPress. Theme Development (2014) [H.264 / 720p] [EN]


    • Комментарии (0):

      Информация

      Информация

        Посетители, находящиеся в группе Гости, не могут оставлять комментарии в данной новости.

        ↓ Меню




        ↓ Опрос

        Вы добавили сайт в закладки?
        Да
        Нет


        Популярное