.
Авторизация | Регистрация
bitok.xyz
» » Udemy.com | Concept Art Masterclass. Create Conceptual Art from Scratch (2019) PCRec [H.264 / 720p-LQ] [EN] торрент скачать бесплатно


    Udemy.com | Concept Art Masterclass. Create Conceptual Art from Scratch (2019) PCRec [H.264 / 720p-LQ] [EN] торрент скачать бесплатно

    Дата: 15-01-2020, 05:00 | .torrent скачали: 0

    Udemy.com | Concept Art Masterclass. Create Conceptual Art from Scratch (2019) PCRec [H.264 / 720p-LQ] [EN]Автор (режиссер): Kemane Ba
    Производство: Udemy.com
    Жанр: Blender, Photoshop, Обучающее видео

    Описание

    Этот 8+ часовой урок проведет вас через все этапы от начала до конца, на примере создания концептуального произведения в кратчайшие сроки.
    Вы изучите основы трехмерного моделирования в интуитивном учебном подходе, который не только поддерживает вашу мотивацию, но и дает вам глубокое понимание того, как работают профессионалы. Работа с 3D-концепциями, пожалуй, самый прямой и быстрый способ поднять ваше портфолио на новый уровень. Если вы действительно заинтересованы и хотите получить базовые знания по созданию концептуальных произведений искусства, тогда это идеальный мастер класс для вас!
    Продолжительность: 08: 31: 31
    Качество видео: PCRec
    Язык озвучки: Английский
    Видео: AVC/H.264, 1280х720, ~2 528 Kbps
    Аудио: AAC, 2 ch, 128 Kbps
    General
    Complete name : Udemy.comConcept Art Masterclass Create Conceptual Art from Scratch1. Introduction1. Introduction.mp4
    Format : MPEG-4
    Format profile : Base Media
    Codec ID : isom (isom/iso2/avc1/mp41)
    File size : 18.1 MiB
    Duration : 57 s 3 ms
    Overall bit rate : 2 662 kb/s
    Writing application : Lavf58.12.100
    Video
    ID : 1
    Format : AVC
    Format/Info : Advanced Video Codec
    Format profile : Main@L3.1
    Format settings : CABAC/4 Ref Frames
    Format settings, CABAC : Yes
    Format settings, Reference frames : 4 frames
    Codec ID : avc1
    Codec ID/Info : Advanced Video Coding
    Duration : 56 s 934 ms
    Bit rate : 2 528 kb/s
    Nominal bit rate : 3 000 kb/s
    Width : 1 280 pixels
    Height : 720 pixels
    Display aspect ratio : 16: 9
    Frame rate mode : Constant
    Frame rate : 30.000 FPS
    Color space : YUV
    Chroma subsampling : 4: 2: 0
    Bit depth : 8 bits
    Scan type : Progressive
    Bits/(Pixel*Frame) : 0.091
    Stream size : 17.2 MiB (95%)
    Writing library : x264 core 148
    Encoding settings : cabac=1/ref=3/deblock=1: -1: -1/analyse=0x1: 0x111/me=umh/subme=6/psy=1/psy_rd=1.00: 0.15/mixed_ref=1/me_range=16/chroma_me=1/trellis=1/8x8dct=0/cqm=0/deadzone=21, 11/fast_pskip=1/chroma_qp_offset=-3/threads=22/lookahead_threads=3/sliced_threads=0/nr=0/decimate=1/interlaced=0/bluray_compat=0/constrained_intra=0/bframes=3/b_pyramid=2/b_adapt=1/b_bias=0/direct=1/weightb=1/open_gop=0/weightp=2/keyint=60/keyint_min=6/scenecut=0/intra_refresh=0/rc_lookahead=60/rc=cbr/mbtree=1/bitrate=3000/ratetol=1.0/qcomp=0.60/qpmin=0/qpmax=69/qpstep=4/vbv_maxrate=3000/vbv_bufsize=6000/nal_hrd=none/filler=0/ip_ratio=1.40/aq=1: 1.00
    Codec configuration box : avcC
    Audio
    ID : 2
    Format : AAC LC
    Format/Info : Advanced Audio Codec Low Complexity
    Codec ID : mp4a-40-2
    Duration : 57 s 3 ms
    Bit rate mode : Constant
    Bit rate : 128 kb/s
    Channel(s) : 2 channels
    Channel layout : L R
    Sampling rate : 48.0 kHz
    Frame rate : 46.875 FPS (1024 SPF)
    Compression mode : Lossy
    Stream size : 891 KiB (5%)
    Default : Yes
    Alternate group : 1


    Udemy.com | Concept Art Masterclass. Create Conceptual Art from Scratch (2019) PCRec [H.264/720p-LQ] [EN]
    Рейтинг →
     (голосов: 1, оценка 4/5, голосовать можно 1 раз )

    Другие торренты по теме:

  • Udemy.com | Concept Art Essentials. Digital Painting From Scratch (2019) PCRec [H.264 / 720p-LQ] [EN]


    • Комментарии (0):

      Информация

      Информация

        Посетители, находящиеся в группе Гости, не могут оставлять комментарии в данной новости.

        ↓ Меню




        ↓ Опрос

        Вы добавили сайт в закладки?
        Да
        Нет


        Популярное