.
Авторизация | Регистрация
bitok.xyz
» » Сергей Гунин | Съёмка на улице при ярком солнце (2019) PCRec [H.264 / 1080p-LQ] торрент скачать бесплатно

    Сергей Гунин | Съёмка на улице при ярком солнце (2019) PCRec [H.264 / 1080p-LQ] торрент скачать бесплатно

    Дата: 15-01-2020, 05:00 | .torrent скачали: 0

    Сергей Гунин | Съёмка на улице при ярком солнце (2019) PCRec [H.264 / 1080p-LQ]Автор: Сергей Гунин
    Производство: whiteonline
    Жанр: Съемка фото

    Описание

    Как снимать на улице в яркий солнечный день? Какие погодные условия и время дня лучше всего подходят для уличной съёмки? Нужен ли отражатель и как его использовать? Как снимать со вспышкой на улице?
    Данный видеоурок поможет вам разобраться во всех этих вопросах, вы научитесь добиваться красивых фотографий даже при жёстком полуденном солнце, узнаете, как использовать отражатель для получения максимально привлекательной картинки и какой результат можно получить со вспышкой.
    В уроке всё это будет разобрано на практике, с демонстрацией разных способов съёмки.
    Продолжительность: 00: 34: 10
    Качество видео: PCRec
    Видео: AVC/H.264, 1920х1080, ~4195 Kbps
    Аудио: AAC, 2 ch, 137 Kbps Код: выделить всеОбщее
    Полное имя : E:photoСъёмка на улице при ярком солнцеСъёмка на улице при ярком солнце.mp4
    Формат : MPEG-4
    Профиль формата : Base Media/Version 2
    Идентификатор кодека : mp42 (mp42/mp41/isom/avc1)
    Размер файла : 1, 04 Гбайт
    Продолжительность : 34 м. 10 с.
    Режим общего битрейта : Переменный
    Общий поток : 4336 Кбит/сек
    Дата кодирования : UTC 2019-06-28 18:42:56
    Дата пометки : UTC 2019-06-28 18:42:56
    Видео
    Идентификатор : 1
    Формат : AVC
    Формат/Информация : Advanced Video Codec
    Профиль формата : High@L4
    Настройки формата : CABAC/5 Ref Frames
    Параметр CABAC формата : Да
    Параметр RefFrames формата : 5 кадров
    Идентификатор кодека : avc1
    Идентификатор кодека/Информация : Advanced Video Coding
    Продолжительность : 34 м. 10 с.
    Битрейт : 4195 Кбит/сек
    Ширина : 1920 пикселей
    Высота : 1080 пикселей
    Соотношение сторон : 16:9
    Режим частоты кадров : Постоянный
    Частота кадров : 25, 000 кадров/сек
    Цветовое пространство : YUV
    Субдискретизация насыщенности : 4:2:0
    Битовая глубина : 8 бит
    Тип развёртки : Прогрессивная
    Бит/(Пиксели*Кадры) : 0.081
    Размер потока : 1, 00 Гбайт (97%)
    Библиотека кодирования : x264 core 157 r10 d4099dd
    Настройки программы : cabac=1/ref=5/deblock=1:0:0/analyse=0x3:0x113/me=hex/subme=8/psy=1/psy_rd=1.00:0.00/mixed_ref=1/me_range=16/chroma_me=1/trellis=2/8x8dct=1/cqm=0/deadzone=21, 11/fast_pskip=1/chroma_qp_offset=-2/threads=34/lookahead_threads=5/sliced_threads=0/nr=0/decimate=1/interlaced=0/bluray_compat=0/stitchable=1/constrained_intra=0/bframes=3/b_pyramid=2/b_adapt=2/b_bias=0/direct=3/weightb=1/open_gop=0/weightp=2/keyint=infinite/keyint_min=25/scenecut=40/intra_refresh=0/rc_lookahead=50/rc=crf/mbtree=1/crf=20.0/qcomp=0.60/qpmin=5/qpmax=69/qpstep=4/vbv_maxrate=5500/vbv_bufsize=15000/crf_max=0.0/nal_hrd=none/filler=0/ip_ratio=1.40/aq=1:1.00
    Дата кодирования : UTC 2019-06-28 18:42:56
    Дата пометки : UTC 2019-06-28 18:42:56
    Цветовой диапазон : Limited
    Основные цвета : BT.709
    Характеристики трансфера : BT.709
    Коэффициенты матрицы : BT.709
    Аудио
    Идентификатор : 2
    Формат : AAC
    Формат/Информация : Advanced Audio Codec
    Профиль формата : LC
    Идентификатор кодека : mp4a-40-2
    Продолжительность : 34 м. 10 с.
    Вид битрейта : Переменный
    Битрейт : 137 Кбит/сек
    Каналы : 2 канала
    Расположение каналов : Front: L R
    Частота : 48, 0 КГц
    Частота кадров : 46, 875 кадров/сек (1024 SPF)
    Метод сжатия : С потерями
    Размер потока : 33, 5 Мбайт (3%)
    Дата кодирования : UTC 2019-06-28 18:42:56
    Дата пометки : UTC 2019-06-28 18:42:56
    1. Как снимать на улице?
    2. Как снимать при жёстком солнечном свете? (Какие аксессуары вам могут помочь)
    3. Как получить хорошие кадры при жёстком солнце, не имея отражателя и прочих инструментов?
    4. Наиболее подходящие погодные условия и время для уличных фотосессий
    5. Нужен ли отражатель при съёмке на улице?
    6. Как лучше использовать отражатель для достижения наиболее крутого эффекта? (И как его использовать не стоит)
    7. Как снимать со вспышкой на улице? Какие вспышки подходят для этого Когда их стоит использовать При каких настройках камеры лучше сниматьСкриншоты:


    Время раздачи: По возможности
    Прямая ссылка скачивания через uTorrent


    Сергей Гунин | Съёмка на улице при ярком солнце (2019) PCRec [H.264/1080p-LQ]
    Рейтинг →
     (голосов: 1, оценка 3/5, голосовать можно 1 раз )

    Другие торренты по теме:

  • Сергей Сартаков | Горный ветер (1960) [PDF]
  • Сергей Вольнов | «Никогда не сдаваться!..» (2019) [FB2]
  • Сергей Куринный | Разработка веб сайтов для начинающих. HTML, CSS, Jаvascript (2020) [PDF, RTF]
  • Сергей Горин | NLP. Техники россыпью. Практическое руководство на базе реальных тренингов с примерами для самостоятельных тренировок (2020) [EPUB]
  • Марина и Сергей Дяченко | Ведьмин зов [сборник] (2020) [FB2]
  • Сергей Залевский | Цикл «Мокрый мир» [2 книги] (2019) [EPUB]
  • Сергей Залевский | За бортом (2019) [FB2]
  • Сергей Гвоздика - Сергей Гвоздика (2014) [MP3|320 кб / с]<Шансон> скачать через торрент бесплатно


    • Комментарии (0):

      Информация

      Информация

        Посетители, находящиеся в группе Гости, не могут оставлять комментарии в данной новости.

        ↓ Меню




        ↓ Опрос

        Вы добавили сайт в закладки?
        Да
        Нет


        Популярное