.
Авторизация | Регистрация
bitok.xyz
» » imoib | Обеспечение безопасности ПДн при их обработке в ИСПДн (2019) PCRec [H.264 / 1080p-LQ] торрент скачать бесплатно


    imoib | Обеспечение безопасности ПДн при их обработке в ИСПДн (2019) PCRec [H.264 / 1080p-LQ] торрент скачать бесплатно

    Дата: 16-01-2020, 05:00 | .torrent скачали: 0

    imoib | Обеспечение безопасности ПДн при их обработке в ИСПДн (2019) PCRec [H.264 / 1080p-LQ]Автор: Институт мониторинга и оценки информационной безопасности (imoib)
    Жанр: Обучающие видеоуроки

    Описание

    Обеспечение безопасности персональных данных при их обработке в информационных системах персональных данных.
    Продолжительность: 09: 43: 20
    Качество видео: PCRec
    Видео: AVC/H.264, 1920x1080, ~ 103 Kbps
    Аудио: AAC, 2 ch, 61.4 Kbps
    Формат : MPEG-4
    Профиль формата : Base Media
    Идентификатор кодека : isom (isom/iso2/avc1/mp41)
    Размер файла : 354 Мбайт
    Продолжительность : 4 ч. 49 м.
    Общий поток : 171 Кбит/сек
    Программа кодирования : Lavf57.56.101
    Видео
    Идентификатор : 1
    Формат : AVC
    Формат/Информация : Advanced Video Codec
    Профиль формата : Main@L4
    Настройки формата : CABAC/4 Ref Frames
    Параметр CABAC формата : Да
    Параметр RefFrames формата : 4 кадра
    Идентификатор кодека : avc1
    Идентификатор кодека/Информация : Advanced Video Coding
    Продолжительность : 4 ч. 49 м.
    Битрейт : 103 Кбит/сек
    Ширина : 1920 пикселей
    Высота : 1080 пикселей
    Соотношение сторон : 16: 9
    Режим частоты кадров : Переменный
    Частота кадров : 24, 000 кадра/сек
    Минимальная частота кадров : 24, 000 кадра/сек
    Максимальная частота кадров : 34, 286 кадра/сек
    Цветовое пространство : YUV
    Субдискретизация насыщенности : 4: 2: 0
    Битовая глубина : 8 бит
    Тип развёртки : Прогрессивная
    Бит/(Пиксели*Кадры) : 0.002
    Размер потока : 214 Мбайт (61%)
    Библиотека кодирования : x264 core 148 r2748 97eaef2
    Настройки программы : cabac=1/ref=1/deblock=1: 0: 0/analyse=0x1: 0x1/me=dia/subme=1/psy=1/psy_rd=1.00: 0.00/mixed_ref=0/me_range=16/chroma_me=1/trellis=0/8x8dct=0/cqm=0/deadzone=21, 11/fast_pskip=1/chroma_qp_offset=0/threads=4/lookahead_threads=1/sliced_threads=0/nr=0/decimate=1/interlaced=0/bluray_compat=0/constrained_intra=0/bframes=3/b_pyramid=2/b_adapt=1/b_bias=0/direct=1/weightb=1/open_gop=0/weightp=1/keyint=240/keyint_min=24/scenecut=40/intra_refresh=0/rc_lookahead=0/rc=crf/mbtree=0/crf=30.0/qcomp=0.60/qpmin=0/qpmax=69/qpstep=4/vbv_maxrate=2048/vbv_bufsize=1228/crf_max=0.0/nal_hrd=none/filler=0/ip_ratio=1.40/pb_ratio=1.30/aq=1: 1.00
    Цветовой диапазон : Limited
    Основные цвета : BT.709
    Характеристики трансфера : BT.709
    Коэффициенты матрицы : BT.709
    Codec configuration box : avcC
    Аудио
    Идентификатор : 2
    Формат : AAC LC
    Формат/Информация : Advanced Audio Codec Low Complexity
    Идентификатор кодека : mp4a-40-2
    Продолжительность : 4 ч. 49 м.
    Вид битрейта : Постоянный
    Битрейт : 61, 4 Кбит/сек
    Каналы : 2 канала
    ChannelLayout : L R
    Частота : 44, 1 КГц
    Частота кадров : 43, 066 кадра/сек (1024 SPF)
    Метод сжатия : С потерями
    Размер потока : 127 Мбайт (36%)
    Default : Да
    AlternateGroup/String : 1


    imoib | Обеспечение безопасности ПДн при их обработке в ИСПДн (2019) PCRec [H.264/1080p-LQ]
    Рейтинг →
     (голосов: 1, оценка 4/5, голосовать можно 1 раз )

    Другие торренты по теме:



      Комментарии (0):

      Информация

      Информация

        Посетители, находящиеся в группе Гости, не могут оставлять комментарии в данной новости.

        ↓ Меню




        ↓ Опрос

        Вы добавили сайт в закладки?
        Да
        Нет


        Популярное