.
Авторизация | Регистрация

bitok.xyz

» » Алекс Мэй | Формула струйных оргазмов (2014) HDRip [H.264 / 720p] торрент скачать бесплатно


    Алекс Мэй | Формула струйных оргазмов (2014) HDRip [H.264 / 720p] торрент скачать бесплатно

    Дата: 27-03-2016, 14:23 | .torrent скачали: 428

    Алекс Мэй | Формула струйных оргазмов (2014) HDRip [H.264 / 720p]Автор (режиссер): Алекс Мэй
    Жанр: Сексология

    Описание

    Формула струйных оргазмов — это эксклюзивная программа, состоящая из 3 ступеней обучения, аналогов которой нет ни на российском, ни на европейском рынке.
    — Чтобы освоить эту программу, вам не нужно быть многоопытным любовником, а ваша женщина не должна быть суперзвездой в постели. Программа специально разработана так, чтобы привести к успеху любую, даже самую неискушенную пару.
    — Вы получите исключительно проверенные, на 100% рабочие техники, а также живую демонстрацию и наглядное изложение материала без заумных терминов, сложной теории и необходимости тратить свое время на пробы и ошибки.
    Продолжительность: 09: 07: 44
    Качество видео: HDRip
    Видео: AVC/H.264, 1280х720, ~4489 Kbps
    Аудио: AAC, 2 ch, 317 Kbps, VBR Код:
    General
    Complete name : C:TorrentsАлекс Мэй - Формула струйных оргазмов 1.0 (2014) HD2. Основная часть курсаsquirt-1.mp4
    Format : MPEG-4
    Format profile : Base Media/Version 2
    Codec ID : mp42
    File size : 1.81 GiB
    Duration : 53mn 55s
    Overall bit rate mode : Variable
    Overall bit rate : 4 810 Kbps
    Encoded date : UTC 2014-04-06 00:37:04
    Tagged date : UTC 2014-04-06 00:37:33
    ©TIM : 00:00:00:00
    ©TSC : 25
    ©TSZ : 1
    Video
    ID : 1
    Format : AVC
    Format/Info : Advanced Video Codec
    Format profile :Main@L4.1
    Format settings, CABAC : Yes
    Format settings, ReFrames : 3 frames
    Codec ID : avc1
    Codec ID/Info : Advanced Video Coding
    Duration : 53mn 55s
    Bit rate mode : Variable
    Bit rate : 4 489 Kbps
    Maximum bit rate : 8 000 Kbps
    Width : 1 280 pixels
    Height : 720 pixels
    Display aspect ratio : 16:9
    Frame rate mode : Constant
    Frame rate : 25.000 fps
    Standard : PAL
    Color space : YUV
    Chroma subsampling : 4:2:0
    Bit depth : 8 bits
    Scan type : Progressive
    Bits/(Pixel*Frame) : 0.195
    Stream size : 1.69 GiB (93%)
    Language : English
    Encoded date : UTC 2014-04-06 00:37:04
    Tagged date : UTC 2014-04-06 00:37:04
    Audio
    ID : 2
    Format : AAC
    Format/Info : Advanced Audio Codec
    Format profile : LC
    Codec ID : 40
    Duration : 53mn 55s
    Source duration : 53mn 55s
    Bit rate mode : Variable
    Bit rate : 317 Kbps
    Maximum bit rate : 387 Kbps
    Channel(s) : 2 channels
    Channel positions : Front: L R
    Sampling rate : 48.0 KHz
    Compression mode : Lossy
    Stream size : 122 MiB (7%)
    Source stream size : 122 MiB (7%)
    Language : English
    Encoded date : UTC 2014-04-06 00:37:04
    Tagged date : UTC 2014-04-06 00:37:04


    Скриншоты для ознакомления




    Алекс Мэй | Формула струйных оргазмов (2014) HDRip [H.264/720p]
    Рейтинг →
     (голосов: 1, оценка 5/5, голосовать можно 1 раз )

    Другие торренты по теме:

  • Алекс Мэй | Формула струйных оргазмов 2.0 (2015) HDRip [H.264 / 1080p]


    • Комментарии (0):

      Информация

      Информация

        Посетители, находящиеся в группе Гости, не могут оставлять комментарии в данной новости.

        ↓ Меню




        ↓ Опрос

        Вы добавили сайт в закладки?
        Да
        Нет


        Популярное