.
Авторизация | Регистрация

bitok.xyz

» » Анатомия страсти / Анатомия Грей / Greys Anatomy (2015) WEB-DL [H.264 / 720p-LQ] (сезон 12, серии 1-24 из 24) Fox Life торрент скачать бесплатно


    Анатомия страсти / Анатомия Грей / Greys Anatomy (2015) WEB-DL [H.264 / 720p-LQ] (сезон 12, серии 1-24 из 24) Fox Life торрент скачать бесплатно

    Дата: 6-12-2016, 04:00 | .torrent скачали: 54

    Анатомия страсти / Анатомия Грей / Greys Anatomy (2015) WEB-DL [H.264 / 720p-LQ] (сезон 12, серии 1-24 из 24) Fox LifeПроизводство: США/ShondaLand, Mark Gordon Company, The Touchstone Television, ABC Studios
    Жанр: драма, мелодрама
    Режиссер: Роб Корн

    Актеры
    Эллен Помпео, Джастин Чэмберс, Сара Рамирез, Чандра Уилсон, Джеймс Пикенс мл., Кевин МакКидд, Мелисса Джордж, Джессика Кэпшоу и др.

    Описание

    Анатомия страсти – это захватывающий своим сюжетом, драматичностью и не ординарностью сериал. В фильме описывается жизнь молодых хирургов, которые посвящают свою жизнь работе в клинике, операциям и пациентам. Но так же не забывают про личную жизнь, которую они с лёгкостью устраивают на рабочем месте. Сериал показывает повседневную жизнь простых врачей, их проблемы, разочарования, неудачи и то, как друзья помогают справиться с навалившимися трудностями на работе и в личной жизни. Каждая серия - это история наполненная интересными открытиями в хирургии, жизненными историями взаимопониманием между коллегами.

    Возраст: 16+ (зрителям, достигшим 16 лет)
    Продолжительность: ~ 00: 42: 00 серия
    Качество видео: WEB-DL
    Перевод: Многоголосый закадровый, профессиональный - Fox Life
    Вид субтитров: вшитые отключаемые
    Язык субтитров: английский
    Видео: AVC/H.264, 1280x720 (16: 9), ~4118 kbps
    Аудио#1 Rus: AC3, 48 kHz, 2 ch, 192 kbps - многоголосый закадровый
    Аудио#2 Eng: AC3, 48 kHz, 6 ch, 384 kbps - оригинал
    General
    Unique ID : 228595109754398434994027755995043213794 (0xABF9D1135BF5E3A19AF677006C7831E2)
    Complete name Greys.Anatomy.S12.720p.WEB-DL.Rus.Eng.CasStudioGreys.Anatomy.S12E01.Sledgehammer.720p.WEB-DL.Rus.Eng.CasStudio.mkv
    Format : Matroska
    Format version : Version 4/Version 2
    File size : 1.38 GiB
    Duration : 41mn 17s
    Overall bit rate : 4 789 Kbps
    Movie name : Grey\'s Anatomy S12E01 - Sledgehammer @ release by SerGV for CasStudio.TV
    Encoded date : UTC 2015-10-21 19: 29: 30
    Writing application : mkvmerge v7.9.0 (\'Birds\') 32bit
    Writing library : libebml v1.3.1 + libmatroska v1.4.2
    Video
    ID : 1
    Format : AVC
    Format/Info : Advanced Video Codec
    Format profile : High@L3.1
    Format settings, CABAC : No
    Format settings, ReFrames : 2 frames
    Codec ID : V_MPEG4/ISO/AVC
    Duration : 41mn 17s
    Bit rate : 4 118 Kbps
    Width : 1 280 pixels
    Height : 720 pixels
    Display aspect ratio : 16: 9
    Frame rate mode : Constant
    Frame rate : 25.000 fps
    Color space : YUV
    Chroma subsampling : 4: 2: 0
    Bit depth : 8 bits
    Scan type : Progressive
    Bits/(Pixel*Frame) : 0.179
    Stream size : 1.19 GiB (86%)
    Language : English
    Default : Yes
    Forced : No
    Color range : Limited
    Color primaries : BT.709
    Transfer characteristics : BT.709
    Matrix coefficients : BT.709
    Audio #1
    ID : 2
    Format : AC-3
    Format/Info : Audio Coding 3
    Mode extension : CM (complete main)
    Format settings, Endianness : Big
    Codec ID : A_AC3
    Duration : 41mn 17s
    Bit rate mode : Constant
    Bit rate : 192 Kbps
    Channel(s) : 2 channels
    Channel positions : Front: L R
    Sampling rate : 48.0 KHz
    Frame rate : 31.250 fps (1536 spf)
    Compression mode : Lossy
    Stream size : 56.7 MiB (4%)
    Title : DD 2.0 @ 192 kbps - FOX Life
    Language : Russian
    Default : Yes
    Forced : No
    Audio #2
    ID : 3
    Format : AC-3
    Format/Info : Audio Coding 3
    Mode extension : CM (complete main)
    Format settings, Endianness : Big
    Codec ID : A_AC3
    Duration : 41mn 17s
    Bit rate mode : Constant
    Bit rate : 384 Kbps
    Channel(s) : 6 channels
    Channel positions : Front: L C R, Side: L R, LFE
    Sampling rate : 48.0 KHz
    Frame rate : 31.250 fps (1536 spf)
    Compression mode : Lossy
    Stream size : 113 MiB (8%)
    Title : DD 5.1 @ 384 kbps - Original
    Language : English
    Default : No
    Forced : No
    Text
    ID : 4
    Format : UTF-8
    Codec ID : S_TEXT/UTF8
    Codec ID/Info : UTF-8 Plain Text
    Language : English
    Default : No
    Forced : No


    Скриншоты для ознакомления




    Онлайн видео Анатомия страсти



    Анатомия страсти/Анатомия Грей/Greys Anatomy (2015) WEB-DL [H.264/720p-LQ] (сезон 12, серии 1-24 из 24) Fox Life
    Рейтинг →
     (голосов: 1, оценка 3/5, голосовать можно 1 раз )

    Другие торренты по теме:

  • Анатомия страсти / Анатомия Грей / Greys Anatomy (2014) WEB-DL [H.264 / 1080p-LQ] (Сезон 11, 1-2 серии из 24) [EN | Rus Sub] (Обновляемая)
  • Анатомия страсти / Анатомия Грей / Greys Anatomy (2014) HDTVRip (сезон 11, серия 1 из ) [Soul Studio] (Обновляемая)
  • Анатомия страсти / Анатомия Грей / Greys Anatomy (2014) HDTVRip [сезон 11, серии 1 из 24] Fox Life (Обновляемая)
  • Анатомия страсти / Анатомия Грей / Greys Anatomy (2014) WEB-DL [H.264 / 720p] (сезон 11, серии 1-10 из 24) (обновляемая) скачать через торрент бесплатно
  • Анатомия страсти / Анатомия Грей / Greys Anatomy (2014) HDTV [H.264 / 1080i-LQ] (сезон 11, серии 1-15 из 24) Fox (обновляемая) скачать через торрент бесплатно
  • Анатомия страсти / Анатомия Грей / Greys Anatomy (2015) WEB-DLRip (сезон 12, серии 1-4 из 24) BaibaKo (обновляемая) скачать через торрент бесплатно
  • Анатомия страсти / Анатомия Грей / Greys Anatomy (2015) WEB-DL [H.264 / 720p-LQ] (сезон 12, серии 1-4 из 24) BaibaKo (обновляемая) скачать через торрент бесплатно
  • Анатомия страсти / Анатомия Грей / Greys Anatomy (2016) WEB-DL [H.264 / 720p-LQ] (сезон 13, серии 1-8 из 18) Fox Life (обновляемая)


    • Комментарии (0):

      Информация

      Информация

        Посетители, находящиеся в группе Гости, не могут оставлять комментарии в данной новости.

        ↓ Меню




        ↓ Опрос

        Вы добавили сайт в закладки?
        Да
        Нет


        Популярное