.
Авторизация | Регистрация
bitok.xyz
» » Железный кулак / Iron Fist (2017) WEBRip [H.264 / 720p] (сезон 1, серии 1-6 из 13) BaibaKo (обновляемая) торрент скачать бесплатно


    Железный кулак / Iron Fist (2017) WEBRip [H.264 / 720p] (сезон 1, серии 1-6 из 13) BaibaKo (обновляемая) торрент скачать бесплатно

    Дата: 21-03-2017, 05:01 | .torrent скачали: 1

    Железный кулак / Iron Fist (2017) WEBRip [H.264 / 720p] (сезон 1, серии 1-6 из 13) BaibaKo (обновляемая)Производство: США
    Жанр: фантастика, боевик, криминал, приключения
    Режиссер: Джон Дал, Фэррен Блэкберн, Ута Бризвитц

    Актеры
    Джессика Хенвик, Финн Джонс, Людовик Куто, По Шадоу, Мюррэй Бартлетт, Самир Али Кхан, Том Пелфри, Джессика Строуп, Дэвид Уэнэм, Николь Бонифачио и др.

    Описание

    Главный персонаж сериала – Дэниел Рэнд. У него есть уникальная способность полностью контролировать течение жизненной энергии ци, он владеет в совершенстве многими техниками боевых искусств, некоторые из которых являются секретными для большинства землян. Но, ничего этого не было бы, если не его отец Уэнделл Рэнд. В своей молодости Уэнделлу посчастливилось посетить тайный город К’ун-Лун, расположенный в Гималаях. Это сакральное поселение миллионы лет назад основали инопланетяне. Сейчас им правят потомки пришельцев и существа, называемые Королями Драконов. К счастью, парнишку нашли и приютили обитатели тайного города. Дэниел начал осваивать тайные боевые искусства. Тогда он не знал: мастерство воина ему понадобится не только для мщения Мичуму, виновному в гибели его отца, но и затем, чтобы бороться со всем злом на Земле.

    Возраст: 18+ (зрителям, достигшим 18 лет. запрещено для детей)
    Релиз от: BaibaKo
    Продолжительность: ~00: 57: 00 серия
    Качество видео: WEBRip
    Перевод: Многоголосый закадровый, профессиональный -BaibaKo
    Реклама: голосовая, текстовая, рекламный баннер
    Видео: AVC/H.264, 1280x720 (16: 9), ~6901 Kbps
    Аудио #1 Rus: AC3, 6 ch, 384 Kbps - (многоголосый закадровый)
    Аудио #2 Eng: AC3, 6 ch, 384 Kbps - (оригинал)
    Полное имя : F: Marvels_Iron_Fist_s1_WEBRip720p_BaibaKo_NNMClubMarvels.Iron.Fist.s01e01.HD720p.WEBRip.Rus.Eng.BaibaKo.tv.mkv
    Формат : Matroska
    Версия формата : Version 4/Version 2
    Размер файла : 3, 04 Гбайт
    Продолжительность : 56 м.
    Общий поток : 7670 Кбит/сек
    Дата кодирования : UTC 2017-03-18 00: 19: 20
    Программа кодирования : mkvmerge v9.9.0 (\'Pick Up\') 64bit
    Библиотека кодирования : libebml v1.3.4 + libmatroska v1.4.5
    Видео
    Идентификатор : 1
    Формат : AVC
    Формат/Информация : Advanced Video Codec
    Профиль формата : High@L3.1
    Параметр CABAC формата : Да
    Параметр ReFrames формата : 4 кадра
    Идентификатор кодека : V_MPEG4/ISO/AVC
    Продолжительность : 56 м.
    Битрейт : 6901 Кбит/сек
    Ширина : 1280 пикселей
    Высота : 720 пикселей
    Соотношение сторон : 16: 9
    Режим частоты кадров : Постоянный
    Частота кадров : 23, 976 (24000/1001) кадра/сек
    Цветовое пространство : YUV
    Субдискретизация насыщенности : 4: 2: 0
    Битовая глубина : 8 бит
    Тип развёртки : Прогрессивная
    Бит/(Пиксели*Кадры) : 0.312
    Размер потока : 2, 74 Гбайт (90%)
    Библиотека кодирования : x264 core 148 r2744 b97ae06
    Настройки программы : cabac=1/ref=3/deblock=1: 0: 0/analyse=0x3: 0x113/me=hex/subme=7/psy=1/psy_rd=1.00: 0.00/mixed_ref=1/me_range=16/chroma_me=1/trellis=1/8x8dct=1/cqm=0/deadzone=21, 11/fast_pskip=1/chroma_qp_offset=-2/threads=12/lookahead_threads=2/sliced_threads=0/nr=0/decimate=1/interlaced=0/bluray_compat=0/constrained_intra=0/bframes=3/b_pyramid=2/b_adapt=1/b_bias=0/direct=1/weightb=1/open_gop=0/weightp=2/keyint=240/keyint_min=23/scenecut=40/intra_refresh=0/rc_lookahead=40/rc=crf/mbtree=1/crf=18.0/qcomp=0.60/qpmin=0/qpmax=69/qpstep=4/ip_ratio=1.40/aq=1: 1.00
    Default : Нет
    Forced : Нет
    Аудио #1
    Идентификатор : 2
    Формат : AC-3
    Формат/Информация : Audio Coding 3
    Расширение режима : CM (complete main)
    Параметр Endianness формата : Big
    Идентификатор кодека : A_AC3
    Продолжительность : 56 м.
    Вид битрейта : Постоянный
    Битрейт : 384 Кбит/сек
    Каналы : 6 каналов
    Расположение каналов : Front: L C R, Side: L R, LFE
    Частота : 48, 0 КГц
    Частота кадров : 31, 250 кадров/сек (1536 spf)
    Метод сжатия : С потерями
    Размер потока : 156 Мбайт (5%)
    Язык : Russian
    Default : Да
    Forced : Нет
    Аудио #2
    Идентификатор : 3
    Формат : AC-3
    Формат/Информация : Audio Coding 3
    Расширение режима : CM (complete main)
    Параметр Endianness формата : Big
    Идентификатор кодека : A_AC3
    Продолжительность : 56 м.
    Вид битрейта : Постоянный
    Битрейт : 384 Кбит/сек
    Каналы : 6 каналов
    Расположение каналов : Front: L C R, Side: L R, LFE
    Частота : 48, 0 КГц
    Частота кадров : 31, 250 кадров/сек (1536 spf)
    Метод сжатия : С потерями
    Размер потока : 156 Мбайт (5%)
    Язык : English
    Default : Нет
    Forced : Нет


    Скриншоты для ознакомления




    Онлайн видео Железный кулак



    Железный кулак/Iron Fist (2017) WEBRip [H.264/720p] (сезон 1, серии 1-6 из 13) BaibaKo (обновляемая)
    Рейтинг →
     (голосов: 1, оценка 5/5, голосовать можно 1 раз )

    Другие торренты по теме:

  • Железный кулак 2 / The Man with the Iron Fists 2 / The Man with the Iron Fists: Sting of the Scorpion (2015) BDRip [H.264 / 720p] [EN] скачать через торрент бесплатно
  • Железный кулак 2 / The Man with the Iron Fists 2 / The Man with the Iron Fists: Sting of the Scorpion (2015) BDRip [H.264 / 1080p] [EN / EN Sub] скачать через торрент бесплатно
  • Железный кулак 2 / The Man with the Iron Fists 2 (2015) HDRip скачать через торрент бесплатно
  • Железный кулак 2 / The Man with the Iron Fists 2 (2015) Blu-ray [H.264 / 1080p] скачать через торрент бесплатно
  • Железный кулак / Iron Fist (2017) WEBRip (сезон 1, серии 1-13 из 13) Newstudio
  • Железный кулак / Iron Fist (2017) WEBRip [H.264] (сезон 1, серии 1-13 из 13) NewStudio [MP4|1280x720]
  • Железный кулак / Iron Fist (2017) WEBRip [H.264 / 720p] (сезон 1, серии 1 из 13) LostFilm (обновляемая)
  • Железный Кулак / Iron Fist (2017) WEBRip [H.264 / 720p-LQ] (сезон 1, серии 1-2 из 13) Jaskier (обновляемая)


    • Комментарии (0):

      Информация

      Информация

        Посетители, находящиеся в группе Гости, не могут оставлять комментарии в данной новости.

        ↓ Меню




        ↓ Опрос

        Вы добавили сайт в закладки?
        Да
        Нет


        Популярное