.
Авторизация | Регистрация
bitok.xyz
Торрент скачать бесплатно Фильмы торрент скачать Летучий отряд (2009) DVDRip (серии 1-8 из 8) торрент скачать бесплатно


    Летучий отряд (2009) DVDRip (серии 1-8 из 8) торрент скачать бесплатно

    Дата: 2-08-2017, 05:00 | .torrent скачали: 109

    Летучий отряд (2009) DVDRip (серии 1-8 из 8)Производство: Россия/компания Репродакшн филмс
    Жанр: боевик, детектив, приключения
    Режиссер: Юрий Оленников, Александр Ламакин

    Актеры
    Алексей Кравченко, Павел Новиков, Олег Жилин, Алексей Осипов, Владислава Назарова, Александр Галибин, Дарья Повереннова, Анна Банщикова, Елизавета Нилова, Андрей Мокеев и др.

    Описание

    Их называют Летучий отряд. Они подчиняются напрямую Управлению экономической контрразведки. Они - лучшие люди своей профессии! Славная пятерка: глава группы - подполковник Кирсанов, старший лейтенант Грушин, майор Артемьев, красавица-следователь Калугина и капитан Тарасюк.Летучему отряду поручают задания особой важности - обеспечить безопасность государственной границы, поймать преступников или наказать оборотней в погонах.

    Возраст: 16+ (зрителям, достигшим 16 лет)
    Продолжительность: ~ 00: 43: 00 серия
    Качество видео: DVDRip
    Видео: Xvid, 720x400 (16: 9), ~1583 Kbps
    Аудио: AC3, 2 ch, 192 Kbps
    Общее
    Полное имя : D: Мои фильмыLetuchij_otrjad_1-8iz8_2009_XviD_DVDRip1.Порт.(1 сер.).avi
    Формат : AVI
    Формат/Информация : Audio Video Interleave
    Размер файла : 555 Мбайт
    Продолжительность : 43 м. 31 с.
    Общий поток : 1784 Кбит/сек
    Программа кодирования : VirtualDubMod 1.5.10.2 (build 2540/release)
    Библиотека кодирования : VirtualDub build 35491/release
    Видео
    Идентификатор : 0
    Формат : MPEG-4 Visual
    Профиль формата : Advanced Simple@L5
    Параметр BVOP формата : 2
    Параметр QPel формата : Нет
    Параметр GMC формата : Без точки перехода
    Параметр матрицы формата : Default (H.263)
    Идентификатор кодека : XVID
    Идентификатор кодека/Подсказка : XviD
    Продолжительность : 43 м. 31 с.
    Битрейт : 1583 Кбит/сек
    Ширина : 720 пикселей
    Высота : 400 пикселей
    Соотношение сторон : 16: 9
    Частота кадров : 25, 000 кадров/сек
    Цветовое пространство : YUV
    Субдискретизация насыщенности : 4: 2: 0
    Битовая глубина : 8 бит
    Тип развёртки : Прогрессивная
    Метод сжатия : С потерями
    Бит/(Пиксели*Кадры) : 0.220
    Размер потока : 493 Мбайт (89%)
    Библиотека кодирования : XviD 67
    Аудио
    Идентификатор : 1
    Формат : AC-3
    Формат/Информация : Audio Coding 3
    Параметр Endianness формата : Big
    Идентификатор кодека : 2000
    Продолжительность : 43 м. 31 с.
    Вид битрейта : Постоянный
    Битрейт : 192 Кбит/сек
    Каналы : 2 канала
    Расположение каналов : Front: L R
    Частота : 48, 0 КГц
    Частота кадров : 31, 250 кадров/сек (1536 SPF)
    Битовая глубина : 16 бит
    Метод сжатия : С потерями
    Размер потока : 59, 8 Мбайт (11%)
    Выравнивание : Соединение по промежуткам
    Продолжительность промежутка : 40 мс. (1, 00 видеокадр)
    Время предзагрузки промежутка : 512 мс.
    ServiceKind/String : Complete Main


    Скриншоты для ознакомления




    Онлайн видео Летучий отряд (2009) DVDRip (серии 1


    Летучий отряд (2009) DVDRip (серии 1-8 из 8) торрент скачать бесплатно
    Рейтинг →
     (голосов: 1, оценка 5/5, голосовать можно 1 раз )

    Другие торренты по теме:

  • Летучий голландец (1991) DVD5
  • Летучий голландец (1991) DVDRip
  • Максим Дунаевский | Летучий корабль. По щучьему велению (2001) [MP3]
  • Пандора и Летучий Голландец / Pandora and the Flying Dutchman (1951) BDRip скачать через торрент бесплатно
  • Пандора и Летучий Голландец / Pandora and the Flying Dutchman (1951) BDRip [H.264] скачать через торрент бесплатно
  • А. Н. Розенберг | Лиссабон девять кругов ада, летучий португалец и... портвейн (2014) [DJVU] скачать через торрент бесплатно
  • Большой скачок. Экраноплан. Летучий корабль (2015) SATRip скачать через торрент бесплатно
  • Александр Розенберг | Лиссабон: девять кругов ада, Летучий португалец и… портвейн (2014) [FB2] скачать через торрент бесплатно


    • Комментарии (0):

      Информация

      Информация

        Посетители, находящиеся в группе Гости, не могут оставлять комментарии в данной новости.

        ↓ Меню




        ↓ Опрос

        Вы добавили сайт в закладки?
        Да
        Нет


        Популярное