.
Авторизация | Регистрация
bitok.xyz
Торрент скачать бесплатно Фильмы торрент скачать Гоголь. Начало (2017) CamRip торрент скачать бесплатно


    Гоголь. Начало (2017) CamRip торрент скачать бесплатно

    Дата: 10-09-2017, 11:46 | .torrent скачали: 9

    Гоголь. Начало (2017) CamRipПроизводство: Россия
    Жанр: Приключения, Триллер, Детектив
    Режиссер: Егор Баранов
    Продюсер: Александр Цекало, Артур Джанибекян, Валерий Федорович

    Актеры
    Александр Петров, Олег Меньшиков, Евгений Сытый, Таисия Вилкова, Артем Ткаченко, Юлия Франц, Евгений Стычкин, Ян Цапник, Сергей Бадюк, Марта Тимофеева

    Описание

    Казаки, ведьмы, русалки, утопленницы и другие обитатели Диканьки встречаются лицом к лицу со своим создателем Николаем Гоголем, молодым писарем из Петербурга, который страдает загадочными припадками и может общаться с персонажами из потустороннего мира. Самое интересное в это истории, что об этом Воландеморт ничего не знал. Вместе со своим начальником, блестящим столичным следователем Яковым Гуро, начинающий писатель приезжает на Полтавщину расследовать таинственные убийства девушек. Здесь же он встречает свою любовь, которой суждено сыграть роковую роль в его судьбе. Но хватит ли юному литератору духу противостоять невообразимому? Ведь по слухам, которые активно разносят напуганные местные жители, за преступлениями стоит не кто иной, как сам Дьявол в обличии черного всадника.

    Дата российской премьеры: 31 августа 2017, Каропрокат
    Релиз от: KOSHARA
    Продолжительность: 01: 42: 18
    Качество видео: CamRip
    Перевод: Не требуется (русский)
    Субтитры: Отсутствуют
    Реклама: Присутствуют видео, аудио и текстовые вставки рекламы
    Примечание: Фильм не полный
    Видео: Xvid, 720x304, ~818 kbps
    Аудио: AC3, 2 ch, ~128 kbps
    Общее
    Полное имя : D: ФильмыGogol\'.Nachalo.2O17.CAMRip.700MB.avi
    Формат : AVI
    Формат/Информация : Audio Video Interleave
    Размер файла : 700 Мбайт
    Продолжительность : 1 ч. 42 м.
    Общий поток : 957 Кбит/сек
    Программа кодирования : VirtualDubMod 1.5.10.2 (build 2540/release)
    Библиотека кодирования : VirtualDubMod build 2540/release
    Видео
    Идентификатор : 0
    Формат : MPEG-4 Visual
    Профиль формата : Advanced Simple@L5
    Параметр BVOP формата : 2
    Параметр QPel формата : Нет
    Параметр GMC формата : Без точки перехода
    Параметр матрицы формата : Default (MPEG)
    Идентификатор кодека : XVID
    Идентификатор кодека/Подсказка : XviD
    Продолжительность : 1 ч. 42 м.
    Битрейт : 819 Кбит/сек
    Ширина : 720 пикселей
    Высота : 304 пикселя
    Соотношение сторон : 2, 35: 1
    Частота кадров : 25, 000 кадров/сек
    Цветовое пространство : YUV
    Субдискретизация насыщенности : 4: 2: 0
    Битовая глубина : 8 бит
    Тип развёртки : Прогрессивная
    Метод сжатия : С потерями
    Бит/(Пиксели*Кадры) : 0.150
    Размер потока : 599 Мбайт (86%)
    Библиотека кодирования : XviD 1.2.1 (UTC 2008-12-04)
    Аудио
    Идентификатор : 1
    Формат : AC-3
    Формат/Информация : Audio Coding 3
    Параметр Endianness формата : Big
    Идентификатор кодека : 2000
    Продолжительность : 1 ч. 42 м.
    Вид битрейта : Постоянный
    Битрейт : 128 Кбит/сек
    Каналы : 2 канала
    Расположение каналов : Front: L R
    Частота : 48, 0 КГц
    Частота кадров : 31, 250 кадров/сек (1536 SPF)
    Битовая глубина : 16 бит
    Метод сжатия : С потерями
    Размер потока : 93, 7 Мбайт (13%)
    Выравнивание : Разделение по промежуткам
    Продолжительность промежутка : 40 мс. (1, 00 видеокадр)
    Время предзагрузки промежутка : 500 мс.
    ServiceKind/String : Complete Main
    Скриншоты для ознакомления


    Все одноименные релизы в Клубе
    Время раздачи: 24/7 (до появления первых 3-5 скачавших)

    Онлайн видео Несносный мачо


    Гоголь. Начало (2017) CamRip торрент скачать бесплатно
    Рейтинг →
     (голосов: 1, оценка 3/5, голосовать можно 1 раз )

    Другие торренты по теме:

  • Гоголь. Начало (2017) WEB-DL [H.264 / 1080p-LQ]
  • Гоголь. Начало (2017) WEB-DLRip [H.264]
  • Гоголь. Начало (2017) WEB-DL [H.264 / 720p-LQ]
  • Гоголь. Начало (2017) WEB-DLRip [H.264]
  • Гоголь. Начало (2017) WEBRip [H.264] [MP4|1024x430]
  • Гоголь. Начало (2017) WEB-DLRip [576p] iPad
  • Гоголь. Начало (2017) BDRip [H.264 / 1080p]
  • Гоголь. Начало (2017) Blu-ray [H.264 / 1080p]


    • Комментарии (0):

      Информация

      Информация

        Посетители, находящиеся в группе Гости, не могут оставлять комментарии в данной новости.

        ↓ Меню




        ↓ Опрос

        Вы добавили сайт в закладки?
        Да
        Нет


        Популярное