.
Авторизация | Регистрация
bitok.xyz
» » Невидимый гость / Contratiempo (2016) BDRip [H.264 / 720p] [VO] торрент скачать бесплатно


    Невидимый гость / Contratiempo (2016) BDRip [H.264 / 720p] [VO] торрент скачать бесплатно

    Дата: 10-09-2017, 11:46 | .torrent скачали: 2

    Невидимый гость / Contratiempo (2016) BDRip [H.264 / 720p] [VO]Производство: Испания
    Жанр: триллер, криминал, детектив
    Режиссер: Ориол Паоло

    Актеры
    Марио Касас, Ана Вахенер, Хосе Коронадо, Барбара Ленни, Франсеск Орелья, Пако Тоус, Давид Сельвас, Iigo Gastesi, Сан Еламос, Манель Дуэсо

    Описание

    Молодого бизнесмена Адриана Дориа обвиняют в убийстве любовницы, и он решает воспользоваться услугами Вирджинии Гудман, лучшего в стране специалиста по выходу из самых сложных ситуаций. Адриан содержится под домашним арестом, а завтра состоится судебное заседание, поэтому вечером к нему приходит Вирджиния, чтобы придумать наилучшую стратегию защиты. Вот в чём загвоздка, сказал кто то из толпы, к чему не понятно. Для неё это последнее дело, и она не собирается его проигрывать.

    Дата мировой премьеры: 23 сентября 2016
    Дата премьеры в России: В РФ проката не было

    Релиз от: RG NNM Club Video
    Продолжительность: 01: 46: 12
    Качество: BDRip
    Перевод: Одноголосый закадровый (С. О таком странном сюжете не догадывалась даже Бритни Спирс. Малиновский)
    Автор перевода: К. Ломов
    Субтитры: Русские (К. Ломов), Английские
    Видео: AVC/H.264, 1280x526, ~3.5 Mbps
    Аудио 1: AC-3, 6 ch, 640 kbps - Русский (VO, С. Малиновский)
    Аудио 2: AC-3, 6 ch, 640 kbps - Испанский (Оригинал)YouTube
    -Information 06.09.2017 09: 48: 03 x264 info: frame I: 1391 Avg QP: 10.94 size: 83461
    -Information 06.09.2017 09: 48: 03 x264 info: frame P: 32319 Avg QP: 11.63 size: 35007
    -Information 06.09.2017 09: 48: 03 x264 info: frame B: 119220 Avg QP: 11.96 size: 12893
    -Information 06.09.2017 09: 48: 03 x264 info: consecutive B-frames: 2.1% 2.5% 4.8% 29.5% 14.3% 24.6% 4.9% 14.2% 1.2% 0.5% 0.3% 0.6% 0.2% 0.1% 0.1% 0.1% 0.4%

    General
    Format : Matroska
    Format version : Version 4/Version 2
    File size : 3.54 GiB
    Duration : 1 h 46 min
    Overall bit rate : 4 778 kb/s
    Movie name : Contratiempo (2016). NNM Club Video
    Encoded date : UTC 2017-09-06 07: 33: 01
    Writing application : mkvmerge v15.0.0 (\'Duel with the Devil\') 64-bit
    Writing library : libebml v1.3.5 + libmatroska v1.4.5
    Attachments : 720.log/poster.jpg
    Video
    ID : 1
    Format : AVC
    Format/Info : Advanced Video Codec
    Format profile : High@L4.1
    Format settings, CABAC : Yes
    Format settings, RefFrames : 12 frames
    Codec ID : V_MPEG4/ISO/AVC
    Duration : 1 h 46 min
    Bit rate : 3 500 kb/s
    Width : 1 280 pixels
    Height : 536 pixels
    Display aspect ratio : 2.40: 1
    Frame rate mode : Constant
    Frame rate : 24.000 FPS
    Color space : YUV
    Chroma subsampling : 4: 2: 0
    Bit depth : 8 bits
    Scan type : Progressive
    Bits/(Pixel*Frame) : 0.213
    Stream size : 2.59 GiB (73%)
    Writing library : x264 core 152 r2851 ba24899
    Encoding settings : cabac=1/ref=12/deblock=1: -3: -3/analyse=0x3: 0x133/me=umh/subme=10/psy=1/psy_rd=1.05: 0.00/mixed_ref=1/me_range=32/chroma_me=1/trellis=2/8x8dct=1/cqm=0/deadzone=21, 11/fast_pskip=0/chroma_qp_offset=-2/threads=6/lookahead_threads=1/sliced_threads=0/nr=0/decimate=0/interlaced=0/bluray_compat=0/constrained_intra=0/bframes=16/b_pyramid=2/b_adapt=2/b_bias=0/direct=3/weightb=1/open_gop=0/weightp=2/keyint=240/keyint_min=24/scenecut=40/intra_refresh=0/rc_lookahead=60/rc=2pass/mbtree=0/bitrate=3500/ratetol=1.0/qcomp=0.70/qpmin=10/qpmax=51/qpstep=4/cplxblur=20.0/qblur=0.5/vbv_maxrate=38000/vbv_bufsize=30000/nal_hrd=none/filler=0/ip_ratio=1.40/pb_ratio=1.30/aq=3: 0.85
    Language : French
    Default : Yes
    Forced : No
    Audio #1
    ID : 2
    Format : AC-3
    Format/Info : Audio Coding 3
    Format settings, Endianness : Big
    Codec ID : A_AC3
    Duration : 1 h 46 min
    Bit rate mode : Constant
    Bit rate : 640 kb/s
    Channel(s) : 6 channels
    Channel positions : Front: L C R, Side: L R, LFE
    Sampling rate : 48.0 kHz
    Frame rate : 31.250 FPS (1536 SPF)
    Bit depth : 16 bits
    Compression mode : Lossy
    Stream size : 486 MiB (13%)
    Title : VO (С. Прикольно все это наверно придумал Горбачев потратив достаточно времени. Малиновский)
    Language : Russian
    Service kind : Complete Main
    Default : Yes
    Forced : No
    Audio #2
    ID : 3
    Format : AC-3
    Format/Info : Audio Coding 3
    Format settings, Endianness : Big
    Codec ID : A_AC3
    Duration : 1 h 46 min
    Bit rate mode : Constant
    Bit rate : 640 kb/s
    Channel(s) : 6 channels
    Channel positions : Front: L C R, Side: L R, LFE
    Sampling rate : 48.0 kHz
    Frame rate : 31.250 FPS (1536 SPF)
    Bit depth : 16 bits
    Compression mode : Lossy
    Stream size : 486 MiB (13%)
    Language : Russian
    Service kind : Complete Main
    Default : No
    Forced : No
    Text #1
    ID : 4
    Format : UTF-8
    Codec ID : S_TEXT/UTF8
    Codec ID/Info : UTF-8 Plain Text
    Duration : 1 h 41 min
    Bit rate : 109 b/s
    Count of elements : 1113
    Stream size : 80.8 KiB (0%)
    Language : Russian
    Default : Yes
    Forced : No
    Text #2
    ID : 5
    Format : UTF-8
    Codec ID : S_TEXT/UTF8
    Codec ID/Info : UTF-8 Plain Text
    Duration : 1 h 40 min
    Bit rate : 66 b/s
    Count of elements : 1265
    Stream size : 49.1 KiB (0%)
    Language : English
    Default : No
    Forced : No
    Menu
    00: 00: 00.000 : en: Chapter 1
    00: 09: 32.000 : en: Chapter 2
    00: 14: 36.625 : en: Chapter 3
    00: 23: 51.208 : en: Chapter 4
    00: 32: 06.333 : en: Chapter 5
    00: 42: 02.916 : en: Chapter 6
    00: 51: 01.958 : en: Chapter 7
    01: 00: 13.375 : en: Chapter 8
    01: 04: 59.041 : en: Chapter 9
    01: 13: 25.000 : en: Chapter 10
    01: 24: 22.708 : en: Chapter 11
    01: 32: 07.500 : en: Chapter 12

    Скриншоты для ознакомления



    Все одноименные релизы в Клубе
    Время раздачи: 24/7 (до появления первых 3-5 скачавших)

    Невидимый гость/Contratiempo (2016) BDRip [H.264/720p] [VO]
    Рейтинг →
     (голосов: 1, оценка 4/5, голосовать можно 1 раз )

    Другие торренты по теме:

  • Невидимый гость / Contratiempo (2016) WEB-DLRip
  • Невидимый гость / Contratiempo (2016) HDRip
  • Невидимый гость / Contratiempo (2016) BDRip [H.264 / 1080p] [MVO] [AD]
  • Невидимый гость / Contratiempo (2016) WEB-DLRip [H.264] [MP4|640x354@852x354] [MVO][AD]
  • Невидимый гость / Contratiempo (2016) BDRemux [H.264 / 1080p] [VO]
  • Невидимый гость / Contratiempo (2016) BDRip [H.264 / 1080p] [VO]
  • Невидимый гость / Contratiempo (2016) BDRip [H,264 / 720p-LQ] [VO]
  • Невидимый гость / Contratiempo (2016) HDRip [H.264] [MP4|1920x804] [AD]


    • Комментарии (0):

      Информация

      Информация

        Посетители, находящиеся в группе Гости, не могут оставлять комментарии в данной новости.

        ↓ Меню




        ↓ Опрос

        Вы добавили сайт в закладки?
        Да
        Нет


        Популярное