.
Авторизация | Регистрация

bitok.xyz

» » Невидимый гость / Contratiempo (2016) BDRip [H,264 / 720p-LQ] [VO] торрент скачать бесплатно


    Невидимый гость / Contratiempo (2016) BDRip [H,264 / 720p-LQ] [VO] торрент скачать бесплатно

    Дата: 10-09-2017, 11:46 | .torrent скачали: 0

    Невидимый гость / Contratiempo (2016) BDRip [H,264 / 720p-LQ] [VO]Производство: Испания
    Жанр: триллер, криминал, детектив
    Режиссер: Ориол Паоло

    Актеры
    Марио Касас, Ана Вахенер, Хосе Коронадо, Барбара Ленни, Франсеск Орелья, Пако Тоус, Давид Сельвас, Iigo Gastesi, Сан Еламос, Манель Дуэсо

    Описание

    Молодого бизнесмена Адриана Дориа обвиняют в убийстве любовницы, и он решает воспользоваться услугами Вирджинии Гудман, лучшего в стране специалиста по выходу из самых сложных ситуаций. Адриан содержится под домашним арестом, а завтра состоится судебное заседание, поэтому вечером к нему приходит Вирджиния, чтобы придумать наилучшую стратегию защиты. Для неё это последнее дело, и она не собирается его проигрывать.

    Дата мировой премьеры: 23 сентября 2016
    Дата премьеры в России: В РФ проката не было

    Релиз от: NNM-Club
    Продолжительность: 01: 46: 12
    Качество: BDRip (batonchik )
    Перевод: Одноголосый закадровый (С. Малиновский)
    Автор перевода: К. Ломов
    Субтитры: Русские (К. Ломов), Английские
    Видео: AVC/H.264, 1280x534, ~ 2550 kbps
    Аудио: AC3, 6 ch, ~ 384 kbps | Русский (VO, С. Малиновский)--Information 05.09.2017 7: 12: 51 Standard error stream
    ---Information 05.09.2017 7: 13: 04 raw info: 1280x534p 1: 1 @ 24/1 fps (cfr)
    ---Information 05.09.2017 7: 13: 04 x264 info: using SAR=1/1
    ---Information 05.09.2017 7: 13: 04 x264 info: using cpu capabilities: MMX2 SSE2Fast SSSE3 SSE4.2
    ---Information 05.09.2017 7: 13: 04 x264 info: profile High, level 4.1
    ---Information 05.09.2017 10: 48: 31 x264 info: frame I: 1528 Avg QP: 8.04 size: 123210
    ---Information 05.09.2017 10: 48: 31 x264 info: frame P: 32293 Avg QP: 11.13 size: 33767
    ---Information 05.09.2017 10: 48: 31 x264 info: frame B: 119109 Avg QP: 14.97 size: 6311

    ---Information 05.09.2017 10: 48: 31 x264 info: consecutive B-frames: 2.1% 2.5% 4.8% 29.1% 14.4% 24.8% 5.4% 14.9% 2.1%
    Общее
    Уникальный идентификатор : 246743967690814122916205881980368983112 (0xB9A128DB5DCC1880A017FEAE099C1448)
    Полное имя : C: 1Невидимый гость_Contratiempo.2016.BDRip.720p.LQ.NNMCLUB.mkv
    Формат : Matroska
    Версия формата : Version 4/Version 2
    Размер файла : 2, 18 Гбайт
    Продолжительность : 1 ч. 46 м.
    Общий поток : 2935 Кбит/сек
    Название фильма : Невидимый гость_Contratiempo.2016.BDRip.720p.LQ.NNMCLUB
    Дата кодирования : UTC 2017-09-05 09: 23: 25
    Программа кодирования : mkvmerge v15.0.0 (\'Duel with the Devil\') 64-bit
    Библиотека кодирования : libebml v1.3.5 + libmatroska v1.4.5
    Видео
    Идентификатор : 1
    Формат : AVC
    Формат/Информация : Advanced Video Codec
    Профиль формата : High@L4.1
    Параметр CABAC формата : Да
    Параметр RefFrames формата : 8 кадров
    Идентификатор кодека : V_MPEG4/ISO/AVC
    Продолжительность : 1 ч. 46 м.
    Битрейт : 2550 Кбит/сек
    Ширина : 1280 пикселей
    Высота : 534 пикселя
    Соотношение сторон : 2, 40: 1
    Режим частоты кадров : Постоянный
    Частота кадров : 24, 000 кадра/сек
    Цветовое пространство : YUV
    Субдискретизация насыщенности : 4: 2: 0
    Битовая глубина : 8 бит
    Тип развёртки : Прогрессивная
    Бит/(Пиксели*Кадры) : 0.155
    Размер потока : 1, 89 Гбайт (87%)
    Заголовок : Невидимый гость_Contratiempo.2016.BDRip.720p.LQ.NNMCLUB
    Библиотека кодирования : x264 core 152 r2851 ba24899
    Настройки программы : cabac=1/ref=8/deblock=1: -2: -2/analyse=0x3: 0x133/me=umh/subme=10/psy=1/psy_rd=1.00: 0.00/mixed_ref=1/me_range=24/chroma_me=1/trellis=2/8x8dct=1/cqm=0/deadzone=21, 11/fast_pskip=0/chroma_qp_offset=-2/threads=12/lookahead_threads=2/sliced_threads=0/nr=0/decimate=1/interlaced=0/bluray_compat=0/constrained_intra=0/bframes=8/b_pyramid=2/b_adapt=2/b_bias=0/direct=3/weightb=1/open_gop=0/weightp=2/keyint=250/keyint_min=23/scenecut=40/intra_refresh=0/rc_lookahead=40/rc=2pass/mbtree=1/bitrate=2550/ratetol=1.0/qcomp=0.60/qpmin=0/qpmax=69/qpstep=4/cplxblur=20.0/qblur=0.5/vbv_maxrate=50000/vbv_bufsize=62500/nal_hrd=none/filler=0/ip_ratio=1.40/aq=1: 0.70
    Язык : English
    Default : Да
    Forced : Нет
    Аудио
    Идентификатор : 2
    Формат : AC-3
    Формат/Информация : Audio Coding 3
    Параметр Endianness формата : Big
    Идентификатор кодека : A_AC3
    Продолжительность : 1 ч. 46 м.
    Вид битрейта : Постоянный
    Битрейт : 384 Кбит/сек
    Каналы : 6 каналов
    Расположение каналов : Front: L C R, Side: L R, LFE
    Частота : 48, 0 КГц
    Частота кадров : 31, 250 кадров/сек (1536 SPF)
    Битовая глубина : 16 бит
    Метод сжатия : С потерями
    Размер потока : 292 Мбайт (13%)
    Заголовок : Одноголосый закадровый (С. Малиновский по субтитрам К. Ломова)
    Язык : Russian
    ServiceKind/String : Complete Main
    Default : Да
    Forced : Нет
    Текст #1
    Идентификатор : 3
    Формат : UTF-8
    Идентификатор кодека : S_TEXT/UTF8
    Идентификатор кодека/Информация : UTF-8 Plain Text
    Продолжительность : 1 ч. 41 м.
    Битрейт : 109 бит/сек
    ElementCount : 1113
    Размер потока : 80, 8 Кбайт (0%)
    Заголовок : Полные (К. Ломов)
    Язык : Russian
    Default : Нет
    Forced : Нет
    Текст #2
    Идентификатор : 4
    Формат : UTF-8
    Идентификатор кодека : S_TEXT/UTF8
    Идентификатор кодека/Информация : UTF-8 Plain Text
    Продолжительность : 1 ч. 40 м.
    Битрейт : 66 бит/сек
    ElementCount : 1265
    Размер потока : 49, 1 Кбайт (0%)
    Язык : English
    Default : Нет
    Forced : Нет
    Меню
    00: 00: 00.000 : en: Chapter 1
    00: 09: 32.000 : en: Chapter 2
    00: 14: 36.625 : en: Chapter 3
    00: 23: 51.208 : en: Chapter 4
    00: 32: 06.333 : en: Chapter 5
    00: 42: 02.916 : en: Chapter 6
    00: 51: 01.958 : en: Chapter 7
    01: 00: 13.375 : en: Chapter 8
    01: 04: 59.041 : en: Chapter 9
    01: 13: 25.000 : en: Chapter 10
    01: 24: 22.708 : en: Chapter 11
    01: 32: 07.500 : en: Chapter 12

    Скриншоты для ознакомления



    Все одноименные релизы в Клубе
    Время раздачи: 24/7 (до появления первых 3-5 скачавших)

    Невидимый гость/Contratiempo (2016) BDRip [H,264/720p-LQ] [VO]
    Рейтинг →
     (голосов: 1, оценка 5/5, голосовать можно 1 раз )

    Другие торренты по теме:

  • Невидимый гость / Contratiempo (2016) WEB-DLRip
  • Невидимый гость / Contratiempo (2016) HDRip
  • Невидимый гость / Contratiempo (2016) BDRip [H.264 / 1080p] [MVO] [AD]
  • Невидимый гость / Contratiempo (2016) WEB-DLRip [H.264] [MP4|640x354@852x354] [MVO][AD]
  • Невидимый гость / Contratiempo (2016) BDRemux [H.264 / 1080p] [VO]
  • Невидимый гость / Contratiempo (2016) BDRip [H.264 / 720p] [VO]
  • Невидимый гость / Contratiempo (2016) BDRip [H.264 / 1080p] [VO]
  • Невидимый гость / Contratiempo (2016) HDRip [H.264] [MP4|1920x804] [AD]


    • Комментарии (0):

      Информация

      Информация

        Посетители, находящиеся в группе Гости, не могут оставлять комментарии в данной новости.

        ↓ Меню




        ↓ Опрос

        Вы добавили сайт в закладки?
        Да
        Нет


        Популярное