.
Авторизация | Регистрация
bitok.xyz
Торрент скачать бесплатно Фильмы торрент скачать Гоголь. Начало (2017) WEB-DL [H.264 / 720p-LQ] торрент скачать бесплатно

    Гоголь. Начало (2017) WEB-DL [H.264 / 720p-LQ] торрент скачать бесплатно

    Дата: 2-10-2017, 05:00 | .torrent скачали: 0

    Гоголь. Начало (2017) WEB-DL [H.264 / 720p-LQ]Производство: Россия | Продюсерский центр Среда
    Жанр: Приключения, триллер, детектив
    Режиссер: Егор Баранов
    Продюсер: Александр Цекало, Артур Джанибекян, Валерий Федорович

    Актеры
    Александр Петров, Олег Меньшиков, Евгений Сытый, Таисия Вилкова, Артем Ткаченко, Юлия Франц, Евгений Стычкин, Ян Цапник, Сергей Бадюк, Марта Тимофеева

    Описание

    Казаки, ведьмы, русалки, утопленницы и другие обитатели Диканьки встречаются лицом к лицу со своим создателем Николаем Гоголем, молодым писарем из Петербурга, который страдает загадочными припадками и может общаться с персонажами из потустороннего мира. Вместе со своим начальником, блестящим столичным следователем Яковым Гуро, начинающий писатель приезжает на Полтавщину расследовать таинственные убийства девушек. Здесь же он встречает свою любовь, которой суждено сыграть роковую роль в его судьбе. Но хватит ли юному литератору духу противостоять невообразимому? Ведь по слухам, которые активно разносят напуганные местные жители, за преступлениями стоит не кто иной, как сам Дьявол в обличии черного всадника.

    Возраст: 18+ (зрителям, достигшим 18 лет. запрещено для детей)
    Дата российской премьеры: 31 августа 2017, Каропрокат
    Продолжительность: 01: 46: 42
    Качество видео: WEB-DL
    Перевод: Не требуется (русский) iTunes
    Субтитры: Отсутствуют
    Видео: AVC/H.264, 1280х536 (2.40: 1), ~4053 kbps, 24.00 fps
    Аудио: AC3, 6 ch, 384 kbps, 48.0 kHz
    General
    Unique ID : 230541055424500636330458359892934418028 (0xAD70979AC3B3F0A3B5FDB5E4360C5E6C)
    Complete name : D: _RUSSIANФИЛЬМЫGogGogol_Nachalo.mkv
    Format : Matroska
    Format version : Version 2
    File size : 3.31 GiB
    Duration : 1 h 46 min
    Overall bit rate : 4 438 kb/s
    Encoded date : UTC 2017-09-30 18: 06: 14
    Writing application : mkvmerge v8.3.0 (\'Over the Horizon\') 64bit
    Writing library : libebml v1.3.1 + libmatroska v1.4.2
    Video
    ID : 1
    Format : AVC
    Format/Info : Advanced Video Codec
    Format profile : Main@L3.1
    Format settings, CABAC : No
    Format settings, ReFrames : 2 frames
    Codec ID : V_MPEG4/ISO/AVC
    Duration : 1 h 46 min
    Bit rate : 4 053 kb/s
    Width : 1 280 pixels
    Height : 536 pixels
    Display aspect ratio : 2.40: 1
    Frame rate mode : Constant
    Frame rate : 24.000 FPS
    Color space : YUV
    Chroma subsampling : 4: 2: 0
    Bit depth : 8 bits
    Scan type : Progressive
    Bits/(Pixel*Frame) : 0.246
    Stream size : 3.02 GiB (91%)
    Language : English
    Default : Yes
    Forced : No
    Color range : Limited
    Color primaries : BT.709
    Transfer characteristics : BT.709
    Matrix coefficients : BT.709
    Audio
    ID : 2
    Format : AC-3
    Format/Info : Audio Coding 3
    Format settings, Endianness : Big
    Codec ID : A_AC3
    Duration : 1 h 46 min
    Bit rate mode : Constant
    Bit rate : 384 kb/s
    Channel(s) : 6 channels
    Channel positions : Front: L C R, Side: L R, LFE
    Sampling rate : 48.0 kHz
    Frame rate : 31.250 FPS (1536 spf)
    Bit depth : 16 bits
    Compression mode : Lossy
    Stream size : 293 MiB (9%)
    Language : Russian
    Service kind : Complete Main
    Default : Yes
    Forced : No
    Menu
    00: 00: 00.000 : en: Р“Рава 1
    00: 05: 51.958 : en: Р“Рава 2
    00: 10: 17.083 : en: Р“Рава 3
    00: 15: 44.041 : en: Р“Рава 4
    00: 22: 17.791 : en: Р“Рава 5
    00: 27: 06.791 : en: Р“Рава 6
    00: 33: 22.416 : en: Р“Рава 7
    00: 40: 16.791 : en: Р“Рава 8
    00: 46: 53.207 : en: Р“Рава 9
    00: 54: 39.290 : en: Р“Рава 10
    01: 00: 58.581 : en: Р“Рава 11
    01: 07: 46.164 : en: Р“Рава 12
    01: 13: 40.289 : en: Р“Рава 13
    01: 20: 47.830 : en: Р“Рава 14
    01: 26: 59.955 : en: Р“Рава 15
    01: 32: 11.121 : en: Р“Рава 16
    01: 38: 34.496 : en: Р“Рава 17

    Скриншоты для ознакомления



    Все одноименные релизы в Клубе
    Время раздачи: 24/7 (до появления первых 3-5 скачавших)

    Онлайн видео Гоголь. Начало (2017) WEB-DL [H.264


    Гоголь. Начало (2017) WEB-DL [H.264 / 720p-LQ] торрент скачать бесплатно
    Рейтинг →
     (голосов: 1, оценка 4/5, голосовать можно 1 раз )

    Другие торренты по теме:

  • Гоголь. Начало (2017) CamRip
  • Гоголь. Начало (2017) WEB-DL [H.264 / 1080p-LQ]
  • Гоголь. Начало (2017) WEB-DLRip [H.264]
  • Гоголь. Начало (2017) WEB-DLRip [H.264]
  • Гоголь. Начало (2017) WEBRip [H.264] [MP4|1024x430]
  • Гоголь. Начало (2017) WEB-DLRip [576p] iPad
  • Гоголь. Начало (2017) BDRip [H.264 / 1080p]
  • Гоголь. Начало (2017) Blu-ray [H.264 / 1080p]


    • Комментарии (0):

      Информация

      Информация

        Посетители, находящиеся в группе Гости, не могут оставлять комментарии в данной новости.

        ↓ Меню




        ↓ Опрос

        Вы добавили сайт в закладки?
        Да
        Нет


        Популярное