.
Авторизация | Регистрация

bitok.xyz

» » Факультет / The Faculty (1998) HDRip [H.264] торрент скачать бесплатно


    Факультет / The Faculty (1998) HDRip [H.264] торрент скачать бесплатно

    Дата: 3-10-2017, 05:00 | .torrent скачали: 0

    Факультет / The Faculty (1998) HDRip [H.264]Производство: США, Dimension Films, Los Hooligans Productions
    Жанр: Ужасы, Фантастика, Триллер, Комедия
    Режиссер: Роберт Родригес
    Продюсер: Элизабет Авеллан, Билл Скотт, Тамара Смит

    Актеры
    Джош Хартнетт, Элайджа Вуд, Джордана Брюстер, Клеа ДюВалл, Лора Харрис, Шон Хэтоси

    Описание

    Колледж Хэррингтон давно утратил свою первозданность. Его обшарпанные коридоры ежедневно заполняет будущее Америки — одиночки и лидеры, пижоны и наркоманы, умники и кретины. Подобно подросткам везде и всюду, они ведут постоянную борьбу друг с другом.
    Но однажды студенты делают ужасающее открытие: их преподаватели — пришельцы с другой планеты! Столкнувшись с вызовом, который они даже не могли себе вообразить, бывшие враги вынуждены объединиться, чтобы спастись от инопланетного вторжения…

    Возраст: 16+ (зрителям, достигшим 16 лет)
    Рейтинг MPAA: R (лицам до 17 лет обязательно присутствие взрослого)
    Релиз от: winchester00100010
    Продолжительность: 01: 44: 31
    Качество видео: HDRip
    Перевод: Двуголосый закадровый (Лицензия R5)
    Субтитры: отсутствуют
    Видео: AVC/H.264, 1024х552, ~2517 kbps
    Аудио: AC3, 6 ch, 448 kbps
    Общее
    Уникальный идентификатор : 225153333540741451166106355525716907358 (0xA962F4682AEAAA408402D1EAE5F9955E)
    Полное имя : D: Торрент файлы раздач вместе с фильмамиThe.Faculty.1998.x264.HDRip-AVC.mkv
    Формат : Matroska
    Версия формата : Version 2
    Размер файла : 2, 16 Гбайт
    Продолжительность : 1 ч. 44 м.
    Общий поток : 2965 Кбит/сек
    Дата кодирования : UTC 2017-10-01 20: 26: 03
    Программа кодирования : mkvmerge v7.8.0 (\'River Man\') 32bit built on Apr 3 2015 12: 11: 22
    Библиотека кодирования : libebml v1.3.1 + libmatroska v1.4.2
    Видео
    Идентификатор : 1
    Формат : AVC
    Формат/Информация : Advanced Video Codec
    Профиль формата : High@L4.1
    Настройки формата : CABAC/12 Ref Frames
    Параметр CABAC формата : Да
    Параметр RefFrames формата : 12 кадров
    Идентификатор кодека : V_MPEG4/ISO/AVC
    Продолжительность : 1 ч. 44 м.
    Битрейт : 2517 Кбит/сек
    Ширина : 1024 пикселя
    Высота : 552 пикселя
    Соотношение сторон : 1, 85: 1
    Режим частоты кадров : Постоянный
    Частота кадров : 23, 976 (24000/1001) кадра/сек
    Цветовое пространство : YUV
    Субдискретизация насыщенности : 4: 2: 0
    Битовая глубина : 8 бит
    Тип развёртки : Прогрессивная
    Бит/(Пиксели*Кадры) : 0.186
    Размер потока : 1, 79 Гбайт (83%)
    Библиотека кодирования : x264 core 146 r2538 121396c
    Настройки программы : cabac=1/ref=12/deblock=1: -1: -1/analyse=0x3: 0x113/me=umh/subme=9/psy=1/psy_rd=1.00: 0.00/mixed_ref=1/me_range=24/chroma_me=1/trellis=2/8x8dct=1/cqm=0/deadzone=21, 11/fast_pskip=0/chroma_qp_offset=-2/threads=12/lookahead_threads=2/sliced_threads=0/nr=0/decimate=0/interlaced=0/bluray_compat=0/constrained_intra=0/bframes=6/b_pyramid=2/b_adapt=2/b_bias=0/direct=3/weightb=1/open_gop=0/weightp=2/keyint=240/keyint_min=23/scenecut=40/intra_refresh=0/rc_lookahead=40/rc=2pass/mbtree=0/bitrate=2517/ratetol=1.0/qcomp=0.60/qpmin=0/qpmax=69/qpstep=4/cplxblur=20.0/qblur=0.5/vbv_maxrate=14000/vbv_bufsize=14000/nal_hrd=none/filler=0/ip_ratio=1.40/pb_ratio=1.30/aq=1: 1.00
    Default : Да
    Forced : Нет
    Аудио
    Идентификатор : 2
    Формат : AC-3
    Формат/Информация : Audio Coding 3
    Параметр Endianness формата : Big
    Идентификатор кодека : A_AC3
    Продолжительность : 1 ч. 44 м.
    Вид битрейта : Постоянный
    Битрейт : 448 Кбит/сек
    Каналы : 6 каналов
    Расположение каналов : Front: L C R, Side: L R, LFE
    Частота : 48, 0 КГц
    Частота кадров : 31, 250 кадров/сек (1536 SPF)
    Битовая глубина : 16 бит
    Метод сжатия : С потерями
    Размер потока : 335 Мбайт (15%)
    ServiceKind/String : Complete Main
    Default : Да
    Forced : Нет

    Скриншоты для ознакомления



    Все одноименные релизы в Клубе
    Время раздачи: С 12: 00 до 23: 00 по МСК (до появления первых 3-5 скачавших), также могу уйти на некоторое время с раздачи в любой момент

    Онлайн видео Факультет



    Факультет/The Faculty (1998) HDRip [H.264]
    Рейтинг →
     (голосов: 1, оценка 5/5, голосовать можно 1 раз )

    Другие торренты по теме:

  • Факультет / The Faculty (1998) BDRip [720p]
  • Факультет / The Faculty (1998) BDRip [H.264 / 1080p-LQ]
  • Факультет / The Faculty (1998) BDRip [H.265 / 1080p-LQ] [MVO]
  • Факультет / The Faculty (1998) AC3 5.1 [hand made]
  • Факультет / The Faculty (1998) BDRip [H.264 / 1080p]
  • Факультет / The Faculty (1998) BDRip [H.264] [PR]


    • Комментарии (0):

      Информация

      Информация

        Посетители, находящиеся в группе Гости, не могут оставлять комментарии в данной новости.

        ↓ Меню




        ↓ Опрос

        Вы добавили сайт в закладки?
        Да
        Нет


        Популярное