.
Авторизация | Регистрация
bitok.xyz
Торрент скачать бесплатно Фильмы торрент скачать Нюхач (2017) WEB-DL [H.264 / 720p-LQ] (сезон 3, серии 1-4 из 8) (обновляемая) торрент скачать бесплатно


    Нюхач (2017) WEB-DL [H.264 / 720p-LQ] (сезон 3, серии 1-4 из 8) (обновляемая) торрент скачать бесплатно

    Дата: 5-10-2017, 05:00 | .torrent скачали: 0

    Нюхач (2017) WEB-DL [H.264 / 720p-LQ] (сезон 3, серии 1-4 из 8) (обновляемая)Производство: Украина/Pronto Film, Film.UA
    Жанр: детектив, драма, криминал
    Режиссер: Артем Литвиненко

    Актеры
    Кирилл Кяро, Иван Оганесян, Мария Аниканова, Нина Гогаева, Николай Чиндяйкин, Оксана Коляденко, Петр Крылов, Андрей Дебрин, Александр Тютин, Борис Каморзин и др.

    Описание

    Его зовут Нюхач. Он обладает сверхчувствительным обонянием, для него не существует тайн и нераскрываемых преступлений. По запаху Нюхач может рассказать все и даже больше о любом человеке: что он ел, с кем он спал, есть ли у него алиби. Уникальная способность Нюхача — его дар и проклятие одновременно.

    Возраст: 16+ (зрителям, достигшим 16 лет)
    Продолжительность: ~00: 50: 00 серия
    Качество видео: WEB-DL
    Язык озвучки: русский
    Видео: AVC/H.264, 1280x720 (16: 9), ~2995 Kbps
    Аудио: AC3, 2 ch, 192 Kbps
    Общее
    Уникальный идентификатор : 194222730842535169191719184872107248247 (0x921DEFF445620FE7A8250E3390058A77)
    Полное имя : D: Нюхач 3 (2017).WEB-DL.(720p)Серия 1.mkv
    Формат : Matroska
    Версия формата : Version 2
    Размер файла : 1, 12 Гбайт
    Продолжительность : 49 м. 24 с.
    Режим общего битрейта : Постоянный
    Общий поток : 3250 Кбит/сек
    Дата кодирования : UTC 2017-10-02 21: 13: 02
    Программа кодирования : mkvmerge v5.8.0 (\'No Sleep/Pillow\') built on Sep 2 2012 15: 37: 04
    Библиотека кодирования : libebml v1.2.3 + libmatroska v1.3.0
    Видео
    Идентификатор : 1
    Формат : AVC
    Формат/Информация : Advanced Video Codec
    Профиль формата : High@L4.1
    Настройки формата : CABAC/4 Ref Frames
    Параметр CABAC формата : Да
    Параметр RefFrames формата : 4 кадра
    Идентификатор кодека : V_MPEG4/ISO/AVC
    Продолжительность : 49 м. 24 с.
    Вид битрейта : Постоянный
    Битрейт : 2993 Кбит/сек
    Номинальный битрейт : 3200 Кбит/сек
    Ширина : 1280 пикселей
    Высота : 720 пикселей
    Соотношение сторон : 16: 9
    Режим частоты кадров : Постоянный
    Частота кадров : 25, 000 кадров/сек
    Цветовое пространство : YUV
    Субдискретизация насыщенности : 4: 2: 0
    Битовая глубина : 8 бит
    Тип развёртки : Прогрессивная
    Бит/(Пиксели*Кадры) : 0.130
    Размер потока : 1, 03 Гбайт (92%)
    Язык : Russian
    Default : Да
    Forced : Да
    Аудио
    Идентификатор : 2
    Формат : AC-3
    Формат/Информация : Audio Coding 3
    Параметр Endianness формата : Big
    Идентификатор кодека : A_AC3
    Продолжительность : 49 м. 24 с.
    Вид битрейта : Постоянный
    Битрейт : 192 Кбит/сек
    Каналы : 2 канала
    Расположение каналов : Front: L R
    Частота : 48, 0 КГц
    Частота кадров : 31, 250 кадров/сек (1536 SPF)
    Битовая глубина : 16 бит
    Метод сжатия : С потерями
    Размер потока : 67, 9 Мбайт (6%)
    Язык : Russian
    ServiceKind/String : Complete Main
    Default : Да
    Forced : Да


    Онлайн видео Нюхач (2017) WEB-DL [H.264


    Нюхач (2017) WEB-DL [H.264 / 720p-LQ] (сезон 3, серии 1-4 из 8) (обновляемая) торрент скачать бесплатно
    Рейтинг →
     (голосов: 1, оценка 3/5, голосовать можно 1 раз )

    Другие торренты по теме:

  • Нюхач (2017) WEB-DL [H.264 / 1080p-LQ] (сезон 3, серии 1-4 из 8) (обновляемая)
  • Нюхач (2019) WEB-DL [H.264 / 720p-LQ] (сезон 4, серии 1-6 из 8) (обновляемая)
  • Нюхач (2019) WEB-DL [H.264 / 1080p-LQ (сезон 4, серии 1-6 из 8) (обновляемая)


    • Комментарии (0):

      Информация

      Информация

        Посетители, находящиеся в группе Гости, не могут оставлять комментарии в данной новости.

        ↓ Меню




        ↓ Опрос

        Вы добавили сайт в закладки?
        Да
        Нет


        Популярное