ВАЖНО! Сайт скоро заблокируют! Подписывайся на наш канал в Telegram https://t.me/torrentok и получи доступ к торрентам без ограничений!
.
Авторизация | Регистрация
bitok.xyz
Торрент скачать бесплатно Фильмы торрент скачать Район С-11 / District C-11 (2017) WEB-DLRip [MVO] [AD] торрент скачать бесплатно


    Район С-11 / District C-11 (2017) WEB-DLRip [MVO] [AD] торрент скачать бесплатно

    Дата: 12-01-2018, 05:00 | .torrent скачали: 2

    Район С-11 / District C-11 (2017) WEB-DLRip [MVO] [AD]Производство: США/Camp 9 Films
    Жанр: Фантастика, криминал
    Режиссер: Уэс Уильямс II

    Актеры
    Хосе Ганз Алвес, Дж.П. Валенти, Артур Хию, Мики Гилмор, Брина Хили, Алекс Кэш, Алайна Джани, Лин Хултгрен, Дэвид Аффлик, Грэхэм Кинг

    Описание

    Во всем мире царит хаос. Двух бостонских копов назначают патрулировать район С-11, где смерть поджидает за каждым углом.

    Дата мировой премьеры: 21 марта 2017
    Продолжительность: 01: 22: 10
    Качество видео: WEB-DLRip
    Перевод: Профессиональный многоголосый (Синема УС)
    Субтитры: Отсутствуют
    Реклама: Присутствуют вставки текстовой рекламы!
    Видео: MPEG4, XviD, 720x304 (2.35: 1), 23.976 fps, 1 816 Kbps (0.346 bit/pixel)
    Аудио: AC-3, 48.0 KHz, 2 ch, 448 Kbps, CBR
    Общее
    Полное имя : E: NNMРайон С-11District C-11 2017 WEB-DLRip.avi
    Формат : AVI
    Формат/Информация : Audio Video Interleave
    Профиль формата : OpenDML
    Размер файла : 1, 31 Гбайт
    Продолжительность : 1 ч. 22 м.
    Общий поток : 2276 Кбит/сек
    Видео
    Идентификатор : 0
    Формат : MPEG-4 Visual
    Профиль формата : Advanced Simple@L5
    Настройки формата : BVOP2
    Параметр BVOP формата : 2
    Параметр QPel формата : Нет
    Параметр GMC формата : Без точки перехода
    Параметр матрицы формата : Default (MPEG)
    Идентификатор кодека : XVID
    Идентификатор кодека/Подсказка : XviD
    Продолжительность : 1 ч. 22 м.
    Битрейт : 1816 Кбит/сек
    Ширина : 720 пикселей
    Высота : 304 пикселя
    Соотношение сторон : 2, 35: 1
    Частота кадров : 23, 976 (24000/1001) кадра/сек
    Цветовое пространство : YUV
    Субдискретизация насыщенности : 4: 2: 0
    Битовая глубина : 8 бит
    Тип развёртки : Прогрессивная
    Метод сжатия : С потерями
    Бит/(Пиксели*Кадры) : 0.346
    Размер потока : 1, 04 Гбайт (80%)
    Библиотека кодирования : XviD 1.2.1 (UTC 2008-12-04)
    Аудио
    Идентификатор : 1
    Формат : AC-3
    Формат/Информация : Audio Coding 3
    Идентификатор кодека : 2000
    Продолжительность : 1 ч. 22 м.
    Вид битрейта : Постоянный
    Битрейт : 448 Кбит/сек
    Каналы : 2 канала
    Расположение каналов : Front: L R
    Частота : 48, 0 КГц
    Частота кадров : 31, 250 кадров/сек (1536 SPF)
    Битовая глубина : 16 бит
    Метод сжатия : С потерями
    Размер потока : 263 Мбайт (20%)
    Выравнивание : Соединение по промежуткам
    Продолжительность промежутка : 32 мс. (0, 77 видеокадр)
    ServiceKind/String : Complete Main

    Скриншоты для ознакомления



    Все одноименные релизы в Клубе Время раздачи: Круглосуточно до 10 скачавших

    Онлайн видео Район С-11


    Район С-11 / District C-11 (2017) WEB-DLRip [MVO] [AD] торрент скачать бесплатно
    Рейтинг →
     (голосов: 1, оценка 5/5, голосовать можно 1 раз )

    Другие торренты по теме:

  • Clinton Shorter - Район №9 / District 9 (2009) [AAC|WEB-DL|256 Kbps]<Score>
  • Район №9 / District 9 (2009) BDRip [H.264 / 1080p-LQ]
  • Район №9 / District 9 (2009) HDRip [H.264] [MP4|1280x692]
  • Район №9 / District 9 (2009) HDRip [H.264] [MP4|1920x1038]
  • Район №9 / District 9 (2009) BDRip
  • Район №9 / District 9 (2009) UHD WEB-DL [H.265 / 2160p-LQ] [4K, HDR, 10-bit]
  • Район №9 / District 9 (2009) BDRip [H.265 / 1080p] [10-bit]


    • Комментарии (0):

      Информация

      Информация

        Посетители, находящиеся в группе Гости, не могут оставлять комментарии в данной новости.

        ↓ Меню




        Популярное