.
Авторизация | Регистрация
bitok.xyz
» » Хоббит: Трилогия / The Hobbit: Trilogy (2012, 2013, 2014) BDRip [H.265 / 1080p-LQ] [10-bit] [Расширенная версия] торрент скачать бесплатно


    Хоббит: Трилогия / The Hobbit: Trilogy (2012, 2013, 2014) BDRip [H.265 / 1080p-LQ] [10-bit] [Расширенная версия] торрент скачать бесплатно

    Дата: 5-03-2018, 05:00 | .torrent скачали: 237

    Хоббит: Трилогия / The Hobbit: Trilogy (2012, 2013, 2014) BDRip [H.265 / 1080p-LQ] [10-bit] [Расширенная версия]Производство: США, Новая Зеландия/New Line Cinema
    Жанр: фэнтези, приключения
    Режиссер: Питер Джексон

    Актеры
    Мартин Фриман, Иэн МакКеллен, Ричард Армитедж, Джеймс Несбитт, Кен Стотт, Грэм МакТавиш, Дин О’Горман, Эйдан Тернер

    Описание

    Фильм повествует о путешествии Бильбо Бэггинса, который пускается в грандиозный поход, целью которого является отвоевание утраченного королевства гномов Эребор у зловещего дракона Смауга. Совершенно неожиданно с хоббитом налаживает контакт волшебник Гэндальф Серый. Так Бильбо находит себя, присоединяясь к компании тринадцати гномов, возглавляемых легендарным воином, Торином Дубощитом. Их путешествие проляжет через Дикий Край, через предательские земли, населенные гоблинами и орками, смертоносными варгами и гигантскими пауками, народом, меняющим шкуры, и волшебниками.
    И хотя их цель находится на Востоке, среди пустошей Одинокой Горы, сначала им придется выбраться из туннелей гоблинов, где Бильбо встретит существо, которое изменит его жизнь навсегда… Голлума.
    Здесь, один на один с Голлумом, на берегу подземного озера, непритязательный Бильбо Бэггинс обнаружит не только скрытые в глубине души хитрость и отвагу, которые удивят даже его, но и завладеет прелестным колечком Голлума, которое обладает нежданными и полезными свойствами… Простое золотое кольцо, c которым связана судьба всего Средиземья, нитями, о которых Бильбо не мог даже вообразить.

    Возраст: 12+ (зрителям, достигшим 12 лет)
    Рейтинг MPAA: PG-13 (детям до 13 лет просмотр нежелателен)

    Релиз от: ХиМиК
    Продолжительность: 03: 02: 32
    Качество видео: BDRip 1080p-LQ
    Перевод: Дублированный (Лицензия), Авторский (одноголосый, закадровый) (Сербин, Горчаков)
    Субтитры: Русские (форсированные, полные), английские
    Видео: HEVC/H.265, 1920x800, (2.40: 1), 6648 Kbps, 23.976 fps
    Аудио 1: AC3, 6 ch, 448 Kbps - Русский, Дубляж
    Аудио 2: AC3, 6 ch, 448 Kbps - Русский, Сербин
    Аудио 3: AC3, 6 ch, 448 Kbps - Русский, Горчаков
    Аудио 4: AC3, 6 ch, 448 Kbps - АнглийскийGeneral
    Unique ID : 199667454685739192742108749439582750458 (0x96368D90BEBDA42EABE5B70432B246FA)
    Complete name : The Hobbit_An Unexpected Journey_2012_Extended Edition_BDRip_1080p_HEVC_10bit.mkv
    Format : Matroska
    Format version : Version 4/Version 2
    File size : 10.8 GiB
    Duration : 3 h 2 min
    Overall bit rate : 8 443 kb/s
    Encoded date : UTC 2018-02-14 18: 13: 12
    Writing application : mkvmerge v18.0.0 (\'Apricity\') 64-bit
    Writing library : libebml v1.3.5 + libmatroska v1.4.8
    Cover : Yes
    Attachments : cover.jpg
    Video
    ID : 1
    Format : HEVC
    Format/Info : High Efficiency Video Coding
    Format profile : Main10@L4.1@High
    Codec ID : V_MPEGH/ISO/HEVC
    Duration : 3 h 2 min
    Bit rate : 6 648 kb/s
    Width : 1 920 pixels
    Height : 800 pixels
    Display aspect ratio : 2.40: 1
    Frame rate mode : Constant
    Frame rate : 23.976 (24000/1001) FPS
    Color space : YUV
    Chroma subsampling : 4: 2: 0
    Bit depth : 10 bits
    Bits/(Pixel*Frame) : 0.181
    Stream size : 8.48 GiB (79%)
    Writing library : x265 2.6+37-1949157705ce: WindowsGCC 7.3.064 bit 10bit
    Encoding settings : cpuid=1173503/frame-threads=4/numa-pools=16/wpp/no-pmode/no-pme/no-psnr/no-ssim/log-level=2/input-csp=1/input-res=1920x800/interlace=0/total-frames=0/level-idc=41/high-tier=1/uhd-bd=0/ref=5/no-allow-non-conformance/no-repeat-t_heads/annexb/no-aud/no-hrd/info/hash=0/no-temporal-layers/open-gop/min-keyint=23/keyint=240/gop-lookahead=0/bframes=6/b-adapt=2/no-b-pyramid/bframe-bias=0/rc-lookahead=40/lookahead-slices=4/scenecut=40/radl=0/no-intra-refresh/ctu=64/min-cu-size=8/rect/amp/max-tu-size=32/tu-inter-depth=4/tu-intra-depth=4/limit-tu=1/rdoq-level=2/dynamic-rd=0.00/no-ssim-rd/signhide/no-tskip/nr-intra=0/nr-inter=0/no-constrained-intra/no-strong-intra-smoothing/max-merge=3/limit-refs=3/limit-modes/me=3/subme=5/merange=57/temporal-mvp/weightp/weightb/no-analyze-src-pics/deblock=-3: -3/no-sao/no-sao-non-deblock/rd=6/no-early-skip/no-rskip/no-fast-intra/no-tskip-fast/no-cu-lossless/b-intra/no-splitrd-skip/rdpenalty=0/psy-rd=2.00/psy-rdoq=0.00/no-rd-refine/no-lossless/cbqpoffs=-2/crqpoffs=-2/rc=crf/crf=18.0/qcomp=0.60/qpstep=4/stats-write=0/stats-read=0/vbv-maxrate=50000/vbv-bufsize=50000/vbv-init=0.9/crf-max=0.0/crf-min=0.0/ipratio=1.40/pbratio=1.30/aq-mode=1/aq-strength=1.00/cutree/zone-count=1/zones: /start-frame=247865/end-frame=262547/qp=35/no-strict-cbr/qg-size=32/no-rc-grain/qpmax=69/qpmin=0/no-const-vbv/sar=1/overscan=0/videoformat=5/range=0/colorprim=2/transfer=2/colormatrix=1/chromaloc=0/display-window=0/max-cll=0, 0/min-luma=0/max-luma=1023/log2-max-poc-lsb=8/vui-timing-info/vui-hrd-info/slices=1/no-opt-qp-pps/no-opt-ref-list-length-pps/no-multi-pass-opt-rps/scenecut-bias=0.05/no-opt-cu-delta-qp/no-aq-motion/no-hdr/no-hdr-opt/no-dhdr10-opt/analysis-reuse-level=5/scale-factor=0/refine-intra=0/refine-inter=0/refine-mv=0/no-limit-sao/ctu-info=0/no-lowpass-dct/refine-mv-type=0/copy-pic=1
    Language : English
    Default : Yes
    Forced : Yes
    Color range : Limited
    Matrix coefficients : BT.709
    Audio #1
    ID : 2
    Format : AC-3
    Format/Info : Audio Coding 3
    Codec ID : A_AC3
    Duration : 3 h 2 min
    Bit rate mode : Constant
    Bit rate : 448 kb/s
    Channel(s) : 6 channels
    Channel positions : Front: L C R, Side: L R, LFE
    Sampling rate : 48.0 kHz
    Frame rate : 31.250 FPS (1536 SPF)
    Bit depth : 16 bits
    Compression mode : Lossy
    Stream size : 585 MiB (5%)
    Title : Дубляж
    Language : Russian
    Service kind : Complete Main
    Default : Yes
    Forced : No
    Audio #2
    ID : 3
    Format : AC-3
    Format/Info : Audio Coding 3
    Codec ID : A_AC3
    Duration : 3 h 2 min
    Bit rate mode : Constant
    Bit rate : 448 kb/s
    Channel(s) : 6 channels
    Channel positions : Front: L C R, Side: L R, LFE
    Sampling rate : 48.0 kHz
    Frame rate : 31.250 FPS (1536 SPF)
    Bit depth : 16 bits
    Compression mode : Lossy
    Stream size : 585 MiB (5%)
    Title : AVO Сербин
    Language : Russian
    Service kind : Complete Main
    Default : No
    Forced : No
    Audio #3
    ID : 4
    Format : AC-3
    Format/Info : Audio Coding 3
    Codec ID : A_AC3
    Duration : 3 h 2 min
    Bit rate mode : Constant
    Bit rate : 448 kb/s
    Channel(s) : 6 channels
    Channel positions : Front: L C R, Side: L R, LFE
    Sampling rate : 48.0 kHz
    Frame rate : 31.250 FPS (1536 SPF)
    Bit depth : 16 bits
    Compression mode : Lossy
    Stream size : 585 MiB (5%)
    Title : AVO Горчаков
    Language : Russian
    Service kind : Complete Main
    Default : No
    Forced : No
    Audio #4
    ID : 5
    Format : AC-3
    Format/Info : Audio Coding 3
    Codec ID : A_AC3
    Duration : 3 h 2 min
    Bit rate mode : Constant
    Bit rate : 448 kb/s
    Channel(s) : 6 channels
    Channel positions : Front: L C R, Side: L R, LFE
    Sampling rate : 48.0 kHz
    Frame rate : 31.250 FPS (1536 SPF)
    Bit depth : 16 bits
    Compression mode : Lossy
    Stream size : 585 MiB (5%)
    Title : Оригинал
    Language : English
    Service kind : Complete Main
    Default : No
    Forced : No
    Text #1
    ID : 6
    Format : UTF-8
    Codec ID : S_TEXT/UTF8
    Codec ID/Info : UTF-8 Plain Text
    Duration : 3 h 0 min
    Bit rate : 1 b/s
    Count of elements : 53
    Stream size : 1.80 KiB (0%)
    Title : RUS Forced
    Language : Russian
    Default : Yes
    Forced : No
    Text #2
    ID : 7
    Format : UTF-8
    Codec ID : S_TEXT/UTF8
    Codec ID/Info : UTF-8 Plain Text
    Duration : 3 h 1 min
    Bit rate : 57 b/s
    Count of elements : 2157
    Stream size : 76.5 KiB (0%)
    Title : RUS Full
    Language : Russian
    Default : No
    Forced : No
    Text #3
    ID : 8
    Format : UTF-8
    Codec ID : S_TEXT/UTF8
    Codec ID/Info : UTF-8 Plain Text
    Duration : 2 h 55 min
    Bit rate : 46 b/s
    Count of elements : 2188
    Stream size : 59.3 KiB (0%)
    Title : ENG Full
    Language : English
    Default : No
    Forced : No
    Menu
    00: 00: 00.000 : ru: Chapter 01
    00: 10: 11.861 : ru: Chapter 02
    00: 14: 08.681 : ru: Chapter 03
    00: 17: 27.254 : ru: Chapter 04
    00: 18: 44.540 : ru: Chapter 05
    00: 23: 16.561 : ru: Chapter 06
    00: 27: 59.469 : ru: Chapter 07
    00: 36: 04.871 : ru: Chapter 08
    00: 41: 17.266 : ru: Chapter 09
    00: 46: 30.829 : ru: Chapter 10
    00: 53: 04.181 : ru: Chapter 11
    00: 58: 07.650 : ru: Chapter 12
    00: 59: 55.049 : ru: Chapter 13
    01: 10: 42.154 : ru: Chapter 14
    01: 15: 01.455 : ru: Chapter 15
    01: 18: 52.602 : ru: Chapter 16
    01: 24: 56.674 : ru: Chapter 17
    01: 30: 34.429 : ru: Chapter 18
    01: 34: 10.436 : ru: Chapter 19
    01: 37: 24.463 : ru: Chapter 20
    01: 39: 03.479 : ru: Chapter 21
    01: 41: 40.803 : ru: Chapter 22
    01: 50: 22.532 : ru: Chapter 23
    01: 52: 59.773 : ru: Chapter 24
    01: 59: 06.305 : ru: Chapter 25
    02: 03: 57.513 : ru: Chapter 26
    02: 09: 51.492 : ru: Chapter 27
    02: 23: 21.384 : ru: Chapter 28
    02: 25: 18.626 : ru: Chapter 29
    02: 26: 31.115 : ru: Chapter 30
    02: 30: 52.668 : ru: Chapter 31
    02: 33: 00.421 : ru: Chapter 32
    02: 35: 52.593 : ru: Chapter 33
    02: 46: 51.209 : ru: Chapter 34
    02: 52: 21.372 : ru: Chapter 35

    Скриншоты для ознакомления



    Онлайн видео Хоббит: Трилогия



    Хоббит: Трилогия/The Hobbit: Trilogy (2012, 2013, 2014) BDRip [H.265/1080p-LQ] [10-bit] [Расширенная версия]
    Рейтинг →
     (голосов: 1, оценка 4/5, голосовать можно 1 раз )

    Другие торренты по теме:

  • Хоббит: Трилогия / The Hobbit: Trilogy (2012-2014) BDRemux [H.264 / 1080p] [Extended Edition] скачать через торрент бесплатно
  • Хоббит: Трилогия / The Hobbit: Trilogy (2012-2014) BDRip [H.264 / 1080p] [Extended Edition] скачать через торрент бесплатно
  • Хоббит / The Hobbit (2012-2014) BDRip [H.265 / 1080p] [Extended Edition] [Трилогия]
  • Хоббит / The Hobbit (2012-2014) BDRip [H.264 / 1080p] [Extended Cut] [Трилогия]


    • Комментарии (0):

      Информация

      Информация

        Посетители, находящиеся в группе Гости, не могут оставлять комментарии в данной новости.

        ↓ Меню




        ↓ Опрос

        Вы добавили сайт в закладки?
        Да
        Нет


        Популярное