.
Авторизация | Регистрация
bitok.xyz
» » Квартирник на НТВ у Маргулиса. Александр Маршал (03.17.2018) WEBRip [H.264 / 1080p-LQ] торрент скачать бесплатно


    Квартирник на НТВ у Маргулиса. Александр Маршал (03.17.2018) WEBRip [H.264 / 1080p-LQ] торрент скачать бесплатно

    Дата: 19-03-2018, 05:00 | .torrent скачали: 6

    Квартирник на НТВ у Маргулиса. Александр Маршал (03.17.2018) WEBRip [H.264 / 1080p-LQ]Производство: НТВ
    Жанр: Концерт

    Описание

    В гости к Евгению Маргулису пришел Александр Маршал. Советский и российский рок-музыкант, певец, бас-гитарист и автор песен вспомнил о своем отце, который пел частушки и во время их исполнения выгонял Александра из комнаты. Музыкант рассказал о начале карьеры и о том, как учился в военно-летном училище, где создал свой первый вокально-инструментальный ансамбль.
    Александр Маршал исполнил полюбившиеся многим песни, например, Moscow calling и рассказал историю записи пластинки с этой композицией. Также музыкант спел обращение к Владимиру Высоцкому, которому в этом году исполнилось бы 80 лет.
    Релиз от: Алехаndr
    Продолжительность: 00: 55: 15
    Качество видео: WEBRip
    Субтитры: Отсутствуют
    Видео: AVC/H.264, 1920x1080 (16: 9), ~1945 Kbps
    Аудио: AC3, 2 ch, 192 Kbps
    Общее
    Уникальный идентификатор : 64370915566922739977839034711046394466 (0x306D632B959E607473840AA8D8A89262)
    Полное имя : G: Квартирник НТВ у Маргулиса (Александр Маршал).by.Алехаndr.mkv
    Формат : Matroska
    Версия формата : Version 4/Version 2
    Размер файла : 861 Мбайт
    Продолжительность : 55 м. 15 с.
    Общий поток : 2179 Кбит/сек
    Программа кодирования : Lavf57.71.100
    Библиотека кодирования : Lavf57.71.100
    ErrorDetectionType : Per level 1
    Видео
    Идентификатор : 1
    Формат : AVC
    Формат/Информация : Advanced Video Codec
    Профиль формата : High@L4
    Настройки формата : CABAC/3 Ref Frames
    Параметр CABAC формата : Да
    Параметр RefFrames формата : 3 кадра
    Идентификатор кодека : V_MPEG4/ISO/AVC
    Продолжительность : 55 м. 15 с.
    Битрейт : 1944 Кбит/сек
    Ширина : 1920 пикселей
    Высота : 1080 пикселей
    Соотношение сторон : 16: 9
    Режим частоты кадров : Постоянный
    Частота кадров : 25, 000 кадров/сек
    Цветовое пространство : YUV
    Субдискретизация насыщенности : 4: 2: 0
    Битовая глубина : 8 бит
    Тип развёртки : Прогрессивная
    Бит/(Пиксели*Кадры) : 0.037
    Размер потока : 768 Мбайт (89%)
    Default : Да
    Forced : Нет
    Цветовой диапазон : Limited
    Основные цвета : BT.709
    Характеристики трансфера : BT.709
    Коэффициенты матрицы : BT.709
    Аудио
    Идентификатор : 2
    Формат : AC-3
    Формат/Информация : Audio Coding 3
    Идентификатор кодека : A_AC3
    Продолжительность : 55 м. 15 с.
    Вид битрейта : Постоянный
    Битрейт : 192 Кбит/сек
    Каналы : 2 канала
    Расположение каналов : Front: L R
    Частота : 44, 1 КГц
    Частота кадров : 28, 711 кадров/сек (1536 SPF)
    Битовая глубина : 16 бит
    Метод сжатия : С потерями
    Размер потока : 75, 9 Мбайт (9%)
    Язык : Russian
    ServiceKind/String : Complete Main
    Default : Да
    Forced : Нет

    Скриншоты для ознакомления



    Все одноименные релизы в Клубе
    Время раздачи: 24/7 (круглосуточно) (до появления первых 3-5 скачавших)

    Онлайн видео Квартирник на НТВ у Маргулиса. Александр Маршал (03.17.2018) WEBRip [H.264



    Квартирник на НТВ у Маргулиса. Александр Маршал (03.17.2018) WEBRip [H.264/1080p-LQ]
    Рейтинг →
     (голосов: 1, оценка 4/5, голосовать можно 1 раз )

    Другие торренты по теме:

  • Квартирник у Маргулиса. Новогодний квартирник. Часть 2 (2016) WEBRip скачать через торрент бесплатно
  • Квартирник у Маргулиса. Новогодний квартирник. Часть 1 (2016) WEBRip скачать через торрент бесплатно
  • Квартирник у Маргулиса - Новогодний квартирник (две части) (2015) DVBRip
  • Квартирник у Маргулиса - ЧайФ (2015) DVBRip скачать через торрент бесплатно
  • Квартирник у Маргулиса - Несчастный Случай (2015) DVBRip скачать через торрент бесплатно
  • Квартирник у Маргулиса - СерьГа (2015) DVBRip скачать через торрент бесплатно
  • Квартирник у Маргулиса - Крематорий (2015) DVBRip скачать через торрент бесплатно
  • Квартирник у Маргулиса. 5 выпуск. Чиж (2015) WEBRip скачать через торрент бесплатно


    • Комментарии (0):

      Информация

      Информация

        Посетители, находящиеся в группе Гости, не могут оставлять комментарии в данной новости.

        ↓ Меню




        ↓ Опрос

        Вы добавили сайт в закладки?
        Да
        Нет


        Популярное