.
Авторизация | Регистрация
bitok.xyz
» » Красный воробей / Red Sparrow (2018) WEBRip [H.264 / 1080p-LQ] [MVO] [AD] торрент скачать бесплатно


    Красный воробей / Red Sparrow (2018) WEBRip [H.264 / 1080p-LQ] [MVO] [AD] торрент скачать бесплатно

    Дата: 17-04-2018, 05:00 | .torrent скачали: 3

    Красный воробей / Red Sparrow (2018) WEBRip [H.264 / 1080p-LQ] [MVO] [AD]Производство: США, Chernin Entertainment, Film Rites, Soundtrack New York
    Жанр: Триллер, Детектив
    Режиссер: Френсис Лоуренс
    Продюсер: Питер Чернин, Дэвид Рэди, Дженно Топпинг

    Актеры
    Дженнифер Лоуренс, Джоэл Эдгертон, Маттиас Шонартс, Шарлотта Рэмплинг, Мэри-Луиз Паркер, Киран Хайндс, Джоэли Ричардсон, Билл Кэмп, Джереми Айронс, Текла Рютен

    Описание

    После вынужденного окончания карьеры из-за профессиональной травмы Доминика Егорова и ее мать сталкиваются с мрачным и неопределенным будущим. Героиня соглашается стать рекрутом в Школе Воробьев, секретной службе, которая обучает уникальных молодых людей использовать свое тело и ум в качестве опаснейшего оружия. После долгого садистского обучения девушка превращается в самого опасного Воробья за всю историю секретной службы. Теперь бывшая балерина должна примирить в себе человека, которым она была, и силу, которой она овладела, со своей собственной жизнью и жизнью всех, кто ей дорог. В том числе, американского агента ЦРУ, пытающегося убедить ее, что он единственный человек, которому она может доверять.

    Возраст: 18+ (зрителям, достигшим 18 лет. запрещено для детей)
    Рейтинг MPAA: R (лицам до 17 лет обязательно присутствие взрослого)
    Дата мировой премьеры: 19 февраля 2018
    Дата российской премьеры: 31 мая 2018, Двадцатый Век Фокс СНГ
    Продолжительность: 02: 15: 48
    Качество видео: WEBRip
    Перевод: Многоголосый закадровый (КОЛОБОК)
    Субтитры: Корейские (вшитые, неотключаемые)
    Реклама: Присутствуют текстовые вставки рекламы
    Видео: AVC/H.264, 1904x800 (2.40: 1), 4829 kbps, 23.976 fps
    Аудио: 48 kHz, AC3 Dolby Digital, 2/0 (L, R) ch, ~384 kbpsОбщее
    Уникальный идентификатор : 207541526290293687622712743561297135150 (0x9C230B44CE136E0EA6FF1558DC68062E)
    Полное имя : D: Красный.воробей.2018.WEBRip.1080p.NNMClub.mkv
    Формат : Matroska
    Версия формата : Version 2
    Размер файла : 5, 05 Гбайт
    Продолжительность : 2 ч. 15 м.
    Режим общего битрейта : Переменный
    Общий поток : 5319 Кбит/сек
    Дата кодирования : UTC 2018-04-16 13: 17: 56
    Программа кодирования : mkvmerge v8.3.0 (\'Over the Horizon\') 64bit
    Библиотека кодирования : libebml v1.3.1 + libmatroska v1.4.2
    Видео
    Идентификатор : 1
    Формат : AVC
    Формат/Информация : Advanced Video Codec
    Профиль формата : High@L4.1
    Параметр CABAC формата : Да
    Параметр RefFrames формата : 4 кадра
    Идентификатор кодека : V_MPEG4/ISO/AVC
    Продолжительность : 2 ч. 15 м.
    Вид битрейта : Переменный
    Битрейт : 4829 Кбит/сек
    Максимальный битрейт : 5600 Кбит/сек
    Ширина : 1904 пикселя
    Высота : 800 пикселей
    Соотношение сторон : 2, 40: 1
    Режим частоты кадров : Постоянный
    Частота кадров : 23, 976 (24000/1001) кадра/сек
    Стандарт вещания : Component
    Цветовое пространство : YUV
    Субдискретизация насыщенности : 4: 2: 0
    Битовая глубина : 8 бит
    Тип развёртки : Прогрессивная
    Бит/(Пиксели*Кадры) : 0.132
    Размер потока : 4, 58 Гбайт (91%)
    Язык : English
    Default : Да
    Forced : Нет
    Цветовой диапазон : Limited
    Основные цвета : BT.709
    Характеристики трансфера : BT.709
    Коэффициенты матрицы : BT.709
    Аудио
    Идентификатор : 2
    Формат : AC-3
    Формат/Информация : Audio Coding 3
    Параметр Endianness формата : Big
    Идентификатор кодека : A_AC3
    Продолжительность : 2 ч. 15 м.
    Вид битрейта : Постоянный
    Битрейт : 384 Кбит/сек
    Каналы : 2 канала
    Расположение каналов : Front: L R
    Частота : 48, 0 КГц
    Частота кадров : 31, 250 кадров/сек (1536 SPF)
    Битовая глубина : 16 бит
    Метод сжатия : С потерями
    Размер потока : 373 Мбайт (7%)
    Язык : Russian
    ServiceKind/String : Complete Main
    Default : Да
    Forced : Нет

    Скриншоты для ознакомления



    Все одноименные релизы в Клубе
    Время раздачи: 24/7 (до появления первых 3-5 скачавших)

    Онлайн видео Красный воробей



    Красный воробей/Red Sparrow (2018) WEBRip [H.264/1080p-LQ] [MVO] [AD]
    Рейтинг →
     (голосов: 1, оценка 3/5, голосовать можно 1 раз )

    Другие торренты по теме:

  • Красный воробей / Red Sparrow (2018) WEBRip [MVO]
  • Красный воробей / Red Sparrow (2018) WEBRip [H.264 / 1080p-LQ] [MVO]
  • Красный воробей / Red Sparrow (2018) BDRip [H.264 / 720p] [MVO] [PR]
  • Красный воробей / Red Sparrow (2018) BDRip [H.264 / 1080p] [MVO] [PR]
  • Красный воробей / Red Sparrow (2018) AC3 5.1 [hand made]
  • Красный воробей / Red Sparrow (2018) BDRemux [H.264 / 1080p]
  • Красный воробей / Red Sparrow (2018) BDRip [H.264 / 1080p]
  • Красный воробей / Red Sparrow (2018) HDRip


    • Комментарии (0):

      Информация

      Информация

        Посетители, находящиеся в группе Гости, не могут оставлять комментарии в данной новости.

        ↓ Меню




        ↓ Опрос

        Вы добавили сайт в закладки?
        Да
        Нет


        Популярное