.
Авторизация | Регистрация

bitok.xyz

» » Шакал / The Jackal (1997) BDRip [H.264 / 720p] торрент скачать бесплатно


    Шакал / The Jackal (1997) BDRip [H.264 / 720p] торрент скачать бесплатно

    Дата: 1-05-2018, 05:00 | .torrent скачали: 4

    Шакал / The Jackal (1997) BDRip [H.264 / 720p]Производство: США, Германия, Франция, Япония, Великобритания/Universal Pictures, Alphaville Films, BBC Television Centre
    Жанр: Боевик, Триллер
    Режиссер: Майкл Кейтон-Джонс

    Актеры
    Брюс Уиллис, Ричард Гир, Сидни Пуатье, Дайан Венора, Матильда Мэй, Дж.К. Симмонс, Ричард Лайнбэк, Джон Каннингэм

    Описание

    Шакал — это кличка. Под ней скрывается один из самых неуловимых преступников международного масштаба, наемный киллер, выполняющий самые сложные задания тех работодателей, кто способен заплатить немалые деньги. После того, как в московском ночном клубе прошла совместная операция американских спецслужб и российской милиции, был убит один из главарей русской мафии, брат покойного обратился к Шакалу и сделал заказ.
    Информация об этом просочилась в ФБР. Стало ясно, что целью киллера является кто-то на самом верху Белого дома. Чтобы остановить Шакала, американцы выпускают из тюрьмы ирландского террориста Деклана Малкуина, у которого свои счеты с Шакалом и который — единственный! — знает наемного убийцу в лицо…

    Возраст: 16+ (зрителям, достигшим 16 лет)
    Рейтинг MPAA: R (лицам до 17 лет обязательно присутствие взрослого)
    Релиз от: k.e.n MegaPeer
    Продолжительность: 02: 04: 30
    Качество видео: BDRip 720p
    Перевод: Дублированный, профессиональный (многоголосый, закадровый), авторский (одноголосый, закадровый)
    Субтитры: Русские, английские
    Видео: AVC, 1280x546 (2.35: 1), 23.976 fps, 5 714 Kbps (0.341 bit/pixel)
    Аудио #1: AC-3, 48.0 KHz, 2 ch, 192 Kbps, CBR (Russian) - дублированный
    Аудио #2: AC-3, 48.0 KHz, 6 ch, 448 Kbps, CBR (Russian) - многоголосый R5
    Аудио #3: AC-3, 48.0 KHz, 6 ch, 384 Kbps, CBR (Russian) - многоголосый (Киномания)
    Аудио #4: AC-3, 48.0 KHz, 6 ch, 448 Kbps, CBR (Russian) - авторский А.Гаврилов
    Аудио #5: AC-3, 48.0 KHz, 6 ch, 448 Kbps, CBR (Russian) - авторский Ю.Живов
    Аудио #6: AC-3, 48.0 KHz, 6 ch, 448 Kbps, CBR (Russian) - авторский В.Горчаков
    Аудио #7: AC-3, 48.0 KHz, 6 ch, 384 Kbps, CBR (Russian) - авторский М.Яроцкий
    Аудио #8: AC-3, 48.0 KHz, 2 ch, 192 Kbps, CBR (Russian) - авторский М.Кашкин
    Аудио #9: AC-3, 48.0 KHz, 6 ch, 448 Kbps, CBR (English) - оригинал
    Полное имя : D: ФИЛЬМЫШакал.1997 (Б.Уиллис, Р.Гир, С.Пуатье).mkv
    Формат : Matroska
    Версия формата : Version 2
    Размер файла : 7, 92 Гбайт
    Продолжительность : 2 ч. 4 м.
    Общий поток : 9108 Кбит/сек
    Дата кодирования : UTC 2018-04-21 19: 47: 02
    Программа кодирования : mkvmerge v5.3.0 (\'I could have danced\') built on Feb 9 2012 10: 38: 07
    Библиотека кодирования : libebml v1.2.3 + libmatroska v1.3.0
    Attachments : poster.jpg
    Видео
    Идентификатор : 1
    Формат : AVC
    Формат/Информация : Advanced Video Codec
    Профиль формата : High@L4.1
    Параметр CABAC формата : Да
    Параметр ReFrames формата : 12 кадров
    Идентификатор кодека : V_MPEG4/ISO/AVC
    Продолжительность : 2 ч. 4 м.
    Битрейт : 5714 Кбит/сек
    Ширина : 1280 пикселей
    Высота : 546 пикселей
    Соотношение сторон : 2, 35: 1
    Режим частоты кадров : Постоянный
    Частота кадров : 23, 976 (24000/1001) кадра/сек
    Цветовое пространство : YUV
    Субдискретизация насыщенности : 4: 2: 0
    Битовая глубина : 8 бит
    Тип развёртки : Прогрессивная
    Бит/(Пиксели*Кадры) : 0.341
    Размер потока : 4, 81 Гбайт (61%)
    Библиотека кодирования : x264 core 146 r2538 121396c
    Настройки программы : cabac=1/ref=12/deblock=1: -3: -3/analyse=0x3: 0x133/me=umh/subme=11/psy=1/psy_rd=1.00: 0.10/mixed_ref=1/me_range=32/chroma_me=1/trellis=2/8x8dct=1/cqm=0/deadzone=21, 11/fast_pskip=0/chroma_qp_offset=-3/threads=12/lookahead_threads=3/sliced_threads=0/nr=0/decimate=0/interlaced=0/bluray_compat=0/constrained_intra=0/bframes=12/b_pyramid=2/b_adapt=2/b_bias=0/direct=3/weightb=1/open_gop=0/weightp=2/keyint=240/keyint_min=23/scenecut=40/intra_refresh=0/rc=2pass/mbtree=0/bitrate=5714/ratetol=1.0/qcomp=0.60/qpmin=0/qpmax=69/qpstep=4/cplxblur=20.0/qblur=0.5/ip_ratio=1.40/pb_ratio=1.30/aq=1: 0.70
    Язык : English
    Default : Да
    Forced : Нет
    Аудио #1
    Идентификатор : 2
    Формат : AC-3
    Формат/Информация : Audio Coding 3
    Расширение режима : CM (complete main)
    Параметр Endianness формата : Big
    Идентификатор кодека : A_AC3
    Продолжительность : 2 ч. 4 м.
    Вид битрейта : Постоянный
    Битрейт : 192 Кбит/сек
    Каналы : 2 канала
    Расположение каналов : Front: L R
    Частота : 48, 0 КГц
    Частота кадров : 31, 250 кадров/сек (1536 spf)
    Битовая глубина : 16 бит
    Метод сжатия : С потерями
    Размер потока : 171 Мбайт (2%)
    Заголовок : Дублированный (Мосфильм)
    Язык : Russian
    Default : Да
    Forced : Да
    Аудио #2
    Идентификатор : 3
    Формат : AC-3
    Формат/Информация : Audio Coding 3
    Расширение режима : CM (complete main)
    Параметр Endianness формата : Big
    Идентификатор кодека : A_AC3
    Продолжительность : 2 ч. 4 м.
    Вид битрейта : Постоянный
    Битрейт : 448 Кбит/сек
    Каналы : 6 каналов
    Расположение каналов : Front: L C R, Side: L R, LFE
    Частота : 48, 0 КГц
    Частота кадров : 31, 250 кадров/сек (1536 spf)
    Битовая глубина : 16 бит
    Метод сжатия : С потерями
    Размер потока : 399 Мбайт (5%)
    Заголовок : Многоголосый (R5)
    Язык : Russian
    Default : Нет
    Forced : Нет
    Аудио #3
    Идентификатор : 4
    Формат : AC-3
    Формат/Информация : Audio Coding 3
    Расширение режима : CM (complete main)
    Параметр Endianness формата : Big
    Идентификатор кодека : A_AC3
    Продолжительность : 2 ч. 4 м.
    Вид битрейта : Постоянный
    Битрейт : 384 Кбит/сек
    Каналы : 6 каналов
    Расположение каналов : Front: L C R, Side: L R, LFE
    Частота : 48, 0 КГц
    Частота кадров : 31, 250 кадров/сек (1536 spf)
    Битовая глубина : 16 бит
    Метод сжатия : С потерями
    Размер потока : 342 Мбайт (4%)
    Заголовок : Многоголосый (Киномания)
    Язык : Russian
    Default : Нет
    Forced : Нет
    Аудио #4
    Идентификатор : 5
    Формат : AC-3
    Формат/Информация : Audio Coding 3
    Расширение режима : CM (complete main)
    Параметр Endianness формата : Big
    Идентификатор кодека : A_AC3
    Продолжительность : 2 ч. 4 м.
    Вид битрейта : Постоянный
    Битрейт : 448 Кбит/сек
    Каналы : 6 каналов
    Расположение каналов : Front: L C R, Side: L R, LFE
    Частота : 48, 0 КГц
    Частота кадров : 31, 250 кадров/сек (1536 spf)
    Битовая глубина : 16 бит
    Метод сжатия : С потерями
    Размер потока : 399 Мбайт (5%)
    Заголовок : Авторский А.Гаврилов
    Язык : Russian
    Default : Нет
    Forced : Нет
    Аудио #5
    Идентификатор : 6
    Формат : AC-3
    Формат/Информация : Audio Coding 3
    Расширение режима : CM (complete main)
    Параметр Endianness формата : Big
    Идентификатор кодека : A_AC3
    Продолжительность : 2 ч. 4 м.
    Вид битрейта : Постоянный
    Битрейт : 448 Кбит/сек
    Каналы : 6 каналов
    Расположение каналов : Front: L C R, Side: L R, LFE
    Частота : 48, 0 КГц
    Частота кадров : 31, 250 кадров/сек (1536 spf)
    Битовая глубина : 16 бит
    Метод сжатия : С потерями
    Размер потока : 399 Мбайт (5%)
    Заголовок : Авторский Ю.Живов
    Язык : Russian
    Default : Нет
    Forced : Нет
    Аудио #6
    Идентификатор : 7
    Формат : AC-3
    Формат/Информация : Audio Coding 3
    Расширение режима : CM (complete main)
    Параметр Endianness формата : Big
    Идентификатор кодека : A_AC3
    Продолжительность : 2 ч. 4 м.
    Вид битрейта : Постоянный
    Битрейт : 448 Кбит/сек
    Каналы : 6 каналов
    Расположение каналов : Front: L C R, Side: L R, LFE
    Частота : 48, 0 КГц
    Частота кадров : 31, 250 кадров/сек (1536 spf)
    Битовая глубина : 16 бит
    Метод сжатия : С потерями
    Размер потока : 399 Мбайт (5%)
    Заголовок : Авторский В.Горчаков
    Язык : Russian
    Default : Нет
    Forced : Нет
    Аудио #7
    Идентификатор : 8
    Формат : AC-3
    Формат/Информация : Audio Coding 3
    Расширение режима : CM (complete main)
    Параметр Endianness формата : Big
    Идентификатор кодека : A_AC3
    Продолжительность : 2 ч. 4 м.
    Вид битрейта : Постоянный
    Битрейт : 384 Кбит/сек
    Каналы : 6 каналов
    Расположение каналов : Front: L C R, Side: L R, LFE
    Частота : 48, 0 КГц
    Частота кадров : 31, 250 кадров/сек (1536 spf)
    Битовая глубина : 16 бит
    Метод сжатия : С потерями
    Размер потока : 342 Мбайт (4%)
    Заголовок : Авторский М.Яроцкий
    Язык : Russian
    Default : Нет
    Forced : Нет
    Аудио #8
    Идентификатор : 9
    Формат : AC-3
    Формат/Информация : Audio Coding 3
    Расширение режима : CM (complete main)
    Параметр Endianness формата : Big
    Идентификатор кодека : A_AC3
    Продолжительность : 2 ч. 4 м.
    Вид битрейта : Постоянный
    Битрейт : 192 Кбит/сек
    Каналы : 2 канала
    Расположение каналов : Front: L R
    Частота : 48, 0 КГц
    Частота кадров : 31, 250 кадров/сек (1536 spf)
    Битовая глубина : 16 бит
    Метод сжатия : С потерями
    Размер потока : 171 Мбайт (2%)
    Заголовок : Авторский А.Кашкин
    Язык : Russian
    Default : Нет
    Forced : Нет
    Аудио #9
    Идентификатор : 10
    Формат : AC-3
    Формат/Информация : Audio Coding 3
    Расширение режима : CM (complete main)
    Параметр Endianness формата : Big
    Идентификатор кодека : A_AC3
    Продолжительность : 2 ч. 4 м.
    Вид битрейта : Постоянный
    Битрейт : 448 Кбит/сек
    Каналы : 6 каналов
    Расположение каналов : Front: L C R, Side: L R, LFE
    Частота : 48, 0 КГц
    Частота кадров : 31, 250 кадров/сек (1536 spf)
    Битовая глубина : 16 бит
    Метод сжатия : С потерями
    Размер потока : 399 Мбайт (5%)
    Язык : English
    Default : Нет
    Forced : Нет
    Текст #1
    Идентификатор : 11
    Формат : UTF-8
    Идентификатор кодека : S_TEXT/UTF8
    Идентификатор кодека/Информация : UTF-8 Plain Text
    Заголовок : Русские - форсированные
    Язык : Russian
    Default : Да
    Forced : Нет
    Текст #2
    Идентификатор : 12
    Формат : UTF-8
    Идентификатор кодека : S_TEXT/UTF8
    Идентификатор кодека/Информация : UTF-8 Plain Text
    Заголовок : Русские R5
    Язык : Russian
    Default : Нет
    Forced : Нет
    Текст #3
    Идентификатор : 13
    Формат : UTF-8
    Идентификатор кодека : S_TEXT/UTF8
    Идентификатор кодека/Информация : UTF-8 Plain Text
    Заголовок : Русские Киномания
    Язык : Russian
    Default : Нет
    Forced : Нет
    Текст #4
    Идентификатор : 14
    Формат : UTF-8
    Идентификатор кодека : S_TEXT/UTF8
    Идентификатор кодека/Информация : UTF-8 Plain Text
    Заголовок : Английские
    Язык : English
    Default : Нет
    Forced : Нет
    Меню
    00: 00: 00.000 : : Chapter 01
    00: 03: 41.012 : : Chapter 02
    00: 08: 08.946 : : Chapter 03
    00: 10: 05.646 : : Chapter 04
    00: 12: 21.866 : : Chapter 05
    00: 14: 39.503 : : Chapter 06
    00: 18: 21.183 : : Chapter 07
    00: 20: 23.013 : : Chapter 08
    00: 22: 25.135 : : Chapter 09
    00: 32: 07.550 : : Chapter 10
    00: 38: 58.961 : : Chapter 11
    00: 41: 24.773 : : Chapter 12
    00: 45: 13.168 : : Chapter 13
    00: 51: 46.561 : : Chapter 14
    00: 53: 28.496 : : Chapter 15
    00: 55: 11.766 : : Chapter 16
    00: 57: 00.542 : : Chapter 17
    01: 03: 39.774 : : Chapter 18
    01: 07: 16.532 : : Chapter 19
    01: 15: 56.843 : : Chapter 20
    01: 18: 35.836 : : Chapter 21
    01: 24: 46.289 : : Chapter 22
    01: 30: 38.266 : : Chapter 23
    01: 34: 02.762 : : Chapter 24
    01: 38: 15.848 : : Chapter 25
    01: 43: 00.424 : : Chapter 26
    01: 45: 03.463 : : Chapter 27
    01: 50: 19.195 : : Chapter 28
    01: 52: 51.055 : : Chapter 29
    01: 53: 31.679 : : Chapter 30
    01: 56: 22.433 : : Chapter 31
    02: 04: 21.412 : : Chapter 32

    Скриншоты для ознакомления



    Все одноименные релизы в Клубе
    Время раздачи: с 23: 00 до 8: 30 (до появления первых 3-5 скачавших)

    Онлайн видео Шакал



    Шакал/The Jackal (1997) BDRip [H.264/720p]
    Рейтинг →
     (голосов: 1, оценка 5/5, голосовать можно 1 раз )

    Другие торренты по теме:

  • Шакал / The Jackal (1997) BDRip [H.264 / 1080p] скачать через торрент бесплатно
  • Шакал / The Jackal (1997) BDRip [H.264 / 1080p-LQ]
  • Шакал / The Jackal (1997) BDRip [H.265 / 1080p-LQ] [MVO]
  • Шакал / The Jackal (1997) BDRip [1080p] ATV
  • Шакал / The Jackal (1997) AC3 5.1 [hand made]


    • Комментарии (0):

      Информация

      Информация

        Посетители, находящиеся в группе Гости, не могут оставлять комментарии в данной новости.

        ↓ Меню




        ↓ Опрос

        Вы добавили сайт в закладки?
        Да
        Нет


        Популярное