.
Авторизация | Регистрация

bitok.xyz

» » Мстители: Война бесконечности / Avengers: Infinity War (2018) TS Proper [H.264 / 720p] [AD] торрент скачать бесплатно


    Мстители: Война бесконечности / Avengers: Infinity War (2018) TS Proper [H.264 / 720p] [AD] торрент скачать бесплатно

    Дата: 16-05-2018, 05:00 | .torrent скачали: 9

    Мстители: Война бесконечности / Avengers: Infinity War (2018) TS Proper [H.264 / 720p] [AD]Производство: США/Marvel Studios Inc.
    Жанр: Фантастика, фэнтези, боевик, приключения
    Режиссер: Энтони Руссо, Джо Руссо

    Актеры
    Роберт Дауни мл., Крис Хемсворт, Марк Руффало, Крис Эванс, Скарлетт Йоханссон, Дон Чидл, Бенедикт Камбербэтч, Том Холланд, Чэдвик Боузмэн, Зои Салдана ...

    Описание

    Пока Мстители и их союзники продолжают защищать мир от различных опасностей, с которыми не смог бы справиться один супергерой, новая угроза возникает из космоса: Танос. Межгалактический тиран преследует цель собрать все шесть Камней Бесконечности — артефакты невероятной силы, с помощью которых можно менять реальность по своему желанию. Всё, с чем Мстители сталкивались ранее, вело к этому моменту — судьба Земли никогда ещё не была столь неопределённой.

    Возраст: 16+ (зрителям, достигшим 16 лет)
    Рейтинг MPAA: PG-13 (детям до 13 лет просмотр нежелателен)
    Дата мировой премьеры: 23 апреля 2018
    Дата премьеры в России: 3 мая 2018

    Продолжительность: 02: 30: 51
    Качество видео: TS
    Перевод: Многоголосый закадровый (TS)
    Субтитры: Отсутствуют
    Реклама: Присутствуют вставки текстовой рекламы
    Видео: H264 1280x528 23.976fps ~4 134 kb/s
    Аудио: AC-3, 2 ch, 384 Kbps
    General
    Unique ID : 187715076587559905421094253065185118460 (0x8D389BD3D9104E768C773E4FA76DC8FC)
    Complete name : D: videoAvengers Infinity War 2018 NEW PROPER 720p.D.TS_KOSHARA.mkv
    Format : Matroska
    Format version : Version 2
    File size : 4.36 GiB
    Duration : 2 h 30 min
    Overall bit rate mode : Variable
    Overall bit rate : 4 134 kb/s
    Encoded date : UTC 2018-05-08 14: 49: 42
    Writing application : mkvmerge v8.3.0 (\'Over the Horizon\') 64bit
    Writing library : libebml v1.3.1 + libmatroska v1.4.2
    Video
    ID : 1
    Format : AVC
    Format/Info : Advanced Video Codec
    Format profile : High@L4.1
    Format settings : CABAC/4 Ref Frames
    Format settings, CABAC : Yes
    Format settings, ReFrames : 4 frames
    Codec ID : V_MPEG4/ISO/AVC
    Duration : 2 h 30 min
    Bit rate mode : Variable
    Bit rate : 3 748 kb/s
    Maximum bit rate : 4 000 kb/s
    Width : 1 280 pixels
    Height : 528 pixels
    Display aspect ratio : 2.40: 1
    Frame rate mode : Constant
    Frame rate : 23.976 (24000/1001) FPS
    Standard : Component
    Color space : YUV
    Chroma subsampling : 4: 2: 0
    Bit depth : 8 bits
    Scan type : Progressive
    Bits/(Pixel*Frame) : 0.231
    Stream size : 3.95 GiB (91%)
    Default : Yes
    Forced : No
    Color range : Limited
    Color primaries : BT.709
    Transfer characteristics : BT.709
    Matrix coefficients : BT.709
    Audio
    ID : 2
    Format : AC-3
    Format/Info : Audio Coding 3
    Codec ID : A_AC3
    Duration : 2 h 30 min
    Bit rate mode : Constant
    Bit rate : 384 kb/s
    Channel(s) : 2 channels
    Channel positions : Front: L R
    Sampling rate : 48.0 kHz
    Frame rate : 31.250 FPS (1536 SPF)
    Bit depth : 16 bits
    Compression mode : Lossy
    Stream size : 414 MiB (9%)
    Service kind : Complete Main
    Default : Yes
    Forced : No

    Скриншоты для ознакомления



    Все одноименные релизы в Клубе Время раздачи: 24/7 (до появления первых 3-5 скачавших)

    Онлайн видео Мстители: Война бесконечности



    Мстители: Война бесконечности/Avengers: Infinity War (2018) TS Proper [H.264/720p] [AD]
    Рейтинг →
     (голосов: 1, оценка 3/5, голосовать можно 1 раз )

    Другие торренты по теме:

  • Мстители: Война бесконечности / Avengers: Infinity War (2018) Hybrid [H.264 / 1080p] [Open Matte] [PR]
  • Мстители: Война бесконечности / Avengers: Infinity War (2018) WEBRip [H.264 / 1080p] [Трейлер] [EN]
  • Мстители: Война бесконечности / Avengers: Infinity War (2018) TS [H.264 / 720p-LQ] [AD] [MVO]
  • Alan Silvestri - Мстители: Война бесконечности / Avengers: Infinity War (Deluxe Edition) (2018) [FLAC|Lossless|tracks]<Soundtrack>
  • Alan Silvestri - Мстители: Война бесконечности / Avengers: Infinity War (Deluxe Edition) (2018) [MP3|320 Kbps] <Soundtrack>
  • Мстители: Война бесконечности / Avengers: Infinity War (2018) TS Proper [H.264]
  • Мстители: Война бесконечности / Avengers: Infinity War (2018) WEB-DLRip [H.264 / 1080p-LQ] [Line, AD]
  • Мстители: Война бесконечности / Avengers: Infinity War (2018) WEB-DL [H.264 / 1080p-LQ] [EN]


    • Комментарии (0):

      Информация

      Информация

        Посетители, находящиеся в группе Гости, не могут оставлять комментарии в данной новости.

        ↓ Меню




        ↓ Опрос

        Вы добавили сайт в закладки?
        Да
        Нет


        Популярное

        Рим / Rome (2005-2007) BDRip [H.264 / 1080p] (сезон 1-2, серии 1-22 из 22) LostFilm, НТВ+

        (скачиваний: 320)
        Звездочет (2004) DVDRip (серии 1-12 из 12)

        (скачиваний: 184)
        Во все тяжкие / Breaking Bad (2008-2013) BDRip [H.264 / 1080p] (сезон 1-5, серии 1-62 из 62) Кубик в Кубе, LostFilm скачать через торрент бесплатно

        (скачиваний: 166)
        Дылды (2019) WEB-DL [H.264 / 1080p-LQ] (сезон 1, серии 1 из 21) (обновляемая)

        (скачиваний: 164)
        Горе от ума (1977) DVD5 (Малый Театр)

        (скачиваний: 151)
        Солдаты (2004-2013) DVDRip / SATRip (сезон 1-17 + Дембельский альбом, серии 1-633 из 633) скачать через торрент бесплатно

        (скачиваний: 133)
        След (2007-2019) SATRip (серии 1-2135)

        (скачиваний: 109)
        Властелин колец / The Lord of the Rings (2001,2002,2003) BDRip [1080p] [Extended Edition] [Трилогия]

        (скачиваний: 93)
        Кремниевая долина / Silicon Valley (2014) HDTVRip (сезон 1, серии 1-8 из 8) Кубик в Кубе скачать через торрент бесплатно

        (скачиваний: 93)
        Друзья / Friends (1994-2004) BDRip (сезон 1-10, серии 1-236 из 236) РТР скачать через торрент бесплатно

        (скачиваний: 80)