.
Авторизация | Регистрация

bitok.xyz

» » Мстители: Война бесконечности / Avengers: Infinity War (2018) WEB-DLRip [H.264 / 1080p-LQ] [Line, AD] торрент скачать бесплатно


    Мстители: Война бесконечности / Avengers: Infinity War (2018) WEB-DLRip [H.264 / 1080p-LQ] [Line, AD] торрент скачать бесплатно

    Дата: 31-07-2018, 05:00 | .torrent скачали: 3

    Мстители: Война бесконечности / Avengers: Infinity War (2018) WEB-DLRip [H.264 / 1080p-LQ] [Line, AD]Производство: США, Marvel Studios Inc.
    Жанр: Фантастика, Фэнтези, Боевик, Приключения
    Режиссер: Энтони Руссо, Джо Руссо
    Продюсер: Виктория Алонсо, Митчелл Белл, Эри Коста

    Актеры
    Роберт Дауни мл., Крис Хемсворт, Марк Руффало, Крис Эванс, Скарлетт Йоханссон, Дон Чидл, Бенедикт Камбербэтч, Том Холланд, Чэдвик Боузмэн, Зои Салдана

    Описание

    Пока Мстители и их союзники продолжают защищать мир от различных опасностей, с которыми не смог бы справиться один супергерой, новая угроза возникает из космоса: Танос. Межгалактический тиран преследует цель собрать все шесть Камней Бесконечности — артефакты невероятной силы, с помощью которых можно менять реальность по своему желанию. Всё, с чем Мстители сталкивались ранее, вело к этому моменту — судьба Земли никогда ещё не была столь неопределённой.

    Возраст: 16+ (зрителям, достигшим 16 лет)
    Рейтинг MPAA: PG-13 (детям до 13 лет просмотр нежелателен)
    Дата мировой премьеры: 23 апреля 2018
    Дата российской премьеры: 3 мая 2018, WDSSPR
    Продолжительность: 02: 29: 54
    Качество видео: WEB-DLRip
    Перевод: Дублированный (Чистый звук)
    Субтитры: Отсутствуют
    Реклама: Присутствуют текстовые вставки рекламы
    Видео: AVC/H.264, 1920x804 (2.40: 1), 5147 kbps, 23.976 fps
    Аудио: 48 kHz, AC3 Dolby Digital, 2/0 (L, R) ch, ~384 kbpsОбщее
    Уникальный идентификатор : 190436133770781846019685920286138306316 (0x8F44AA4DF8A9A5BAAEE651DA15AE0F0C)
    Полное имя : D: Мстители.Война.бесконечности.2018.WEB-DLRip.1080p.NNMClub.mkv
    Формат : Matroska
    Версия формата : Version 4/Version 2
    Размер файла : 5, 77 Гбайт
    Продолжительность : 2 ч. 29 м.
    Режим общего битрейта : Переменный
    Общий поток : 5533 Кбит/сек
    Дата кодирования : UTC 2018-07-30 18: 19: 50
    Программа кодирования : mkvmerge v8.3.0 (\'Over the Horizon\') 64bit
    Библиотека кодирования : libebml v1.3.1 + libmatroska v1.4.2
    Видео
    Идентификатор : 2
    Формат : AVC
    Формат/Информация : Advanced Video Codec
    Профиль формата : High@L4.1
    Настройки формата : CABAC/4 Ref Frames
    Параметр CABAC формата : Да
    Параметр RefFrames формата : 4 кадра
    Идентификатор кодека : V_MPEG4/ISO/AVC
    Продолжительность : 2 ч. 29 м.
    Вид битрейта : Переменный
    Битрейт : 5147 Кбит/сек
    Максимальный битрейт : 5900 Кбит/сек
    Ширина : 1920 пикселей
    Высота : 804 пикселя
    Соотношение сторон : 2, 40: 1
    Режим частоты кадров : Постоянный
    Частота кадров : 23, 976 (24000/1001) кадра/сек
    Стандарт вещания : Component
    Цветовое пространство : YUV
    Субдискретизация насыщенности : 4: 2: 0
    Битовая глубина : 8 бит
    Тип развёртки : Прогрессивная
    Бит/(Пиксели*Кадры) : 0.139
    Размер потока : 5, 37 Гбайт (93%)
    Язык : Russian
    Default : Да
    Forced : Нет
    Цветовой диапазон : Limited
    Основные цвета : BT.709
    Характеристики трансфера : BT.709
    Коэффициенты матрицы : BT.709
    Аудио
    Идентификатор : 1
    Формат : AC-3
    Формат/Информация : Audio Coding 3
    Идентификатор кодека : A_AC3
    Продолжительность : 2 ч. 29 м.
    Вид битрейта : Постоянный
    Битрейт : 384 Кбит/сек
    Каналы : 2 канала
    Расположение каналов : Front: L R
    Частота : 48, 0 КГц
    Частота кадров : 31, 250 кадров/сек (1536 SPF)
    Битовая глубина : 16 бит
    Метод сжатия : С потерями
    Размер потока : 410 Мбайт (7%)
    Язык : English
    ServiceKind/String : Complete Main
    Default : Да
    Forced : Нет

    Скриншоты для ознакомления



    Все одноименные релизы в Клубе
    Время раздачи: 24/7 (до появления первых 3-5 скачавших)

    Онлайн видео Мстители: Война бесконечности



    Мстители: Война бесконечности/Avengers: Infinity War (2018) WEB-DLRip [H.264/1080p-LQ] [Line, AD]
    Рейтинг →
     (голосов: 1, оценка 3/5, голосовать можно 1 раз )

    Другие торренты по теме:

  • Мстители: Война бесконечности / Avengers: Infinity War (2018) WEBRip [H.264 / 1080p] [Трейлер] [EN]
  • Мстители: Война бесконечности / Avengers: Infinity War (2018) TS [H.264 / 720p-LQ] [AD] [MVO]
  • Alan Silvestri - Мстители: Война бесконечности / Avengers: Infinity War (Deluxe Edition) (2018) [FLAC|Lossless|tracks]<Soundtrack>
  • Alan Silvestri - Мстители: Война бесконечности / Avengers: Infinity War (Deluxe Edition) (2018) [MP3|320 Kbps] <Soundtrack>
  • Мстители: Война бесконечности / Avengers: Infinity War (2018) TS Proper [H.264 / 720p] [AD]
  • Мстители: Война бесконечности / Avengers: Infinity War (2018) TS Proper [H.264]
  • Мстители: Война бесконечности / Avengers: Infinity War (2018) WEB-DL [H.264 / 1080p-LQ] [EN]
  • Мстители: Война бесконечности / Avengers: Infinity War (2018) WEB-DL [H.264 / 720p-LQ] [EN / RU, EN Sub]


    • Комментарии (0):

      Информация

      Информация

        Посетители, находящиеся в группе Гости, не могут оставлять комментарии в данной новости.

        ↓ Меню




        ↓ Опрос

        Вы добавили сайт в закладки?
        Да
        Нет


        Популярное