.
Авторизация | Регистрация

bitok.xyz

» » Закат цивилизации / Extinction (2018) WEB-DLRip [H.264] [MVO] торрент скачать бесплатно


    Закат цивилизации / Extinction (2018) WEB-DLRip [H.264] [MVO] торрент скачать бесплатно

    Дата: 5-08-2018, 05:00 | .torrent скачали: 1

    Закат цивилизации / Extinction (2018) WEB-DLRip [H.264] [MVO]Производство: США/Good Universe, Mandeville Films, Universal Pictures
    Жанр: Фантастика, Триллер
    Режиссер: Бен Янг
    Продюсер: Дэвид Хоберман, Натан Каан, Тодд Либерман

    Актеры
    Майкл Пенья, Майк Колтер, Лиззи Каплан, Израэль Бруссар, Эмма Бут, Том Райли, Лилли Аспелл, Лекс Шрэпнел, Эрика Тремблэй, Амелия Крауч

    Описание

    Питер видит один и тот же кошмарный сон, в котором он постоянно теряет семью. Однажды сон почти сбывается, когда на Землю прибывают инопланетяне, сеющие смерть, разрушение и ужас. Пытаясь спасти семью, Питер обнаруживает в себе неожиданный источник сил.

    Дата мировой премьеры: 27 июля 2018
    Дата российской премьеры: 27 июля 2018
    Релиз от: OlLanDGroup
    Продолжительность: 01: 35: 20
    Качество видео: WEB-DLRip
    Перевод: Многоголосый закадровый, любительский (@MUZOBOZ@)
    Субтитры: Русские (форс., полные), Английский (полные, SDH)
    Реклама: Отсутствует
    Видео: AVC/H.264, 1024x428, ~1615 Kbps
    Аудио #1: AC3, 6 ch, 448 Kbps - русский
    Аудио #2: AC3, 6 ch, 384 Kbps - английский
    Общее
    Уникальный идентификатор : 198842396053936864813688668705650652697 (0x9597A708C23F3A92BC77A5F3A4D03619)
    Полное имя : D: CDЗакат цивилизации (Фантастика-Триллер) (2018) WEB-DLExtinction_2018_WEB-DLRip-MVO.mkv
    Формат : Matroska
    Версия формата : Version 4/Version 2
    Размер файла : 1, 63 Гбайт
    Продолжительность : 1 ч. 35 м.
    Общий поток : 2444 Кбит/сек
    Название фильма : Extinction.2018 #TorpedoUK#
    Дата кодирования : UTC 2018-08-04 05: 47: 34
    Программа кодирования : mkvmerge v6.6.0 (\'The Edge Of The In Between\') built on Dec 1 2013 17: 55: 00
    Библиотека кодирования : libebml v1.3.0 + libmatroska v1.4.1
    Видео
    Идентификатор : 1
    Формат : AVC
    Формат/Информация : Advanced Video Codec
    Профиль формата : High@L4.1
    Настройки формата : CABAC/10 Ref Frames
    Параметр CABAC формата : Да
    Параметр RefFrames формата : 10 кадров
    Идентификатор кодека : V_MPEG4/ISO/AVC
    Продолжительность : 1 ч. 35 м.
    Битрейт : 1615 Кбит/сек
    Ширина : 1024 пикселя
    Высота : 428 пикселей
    Соотношение сторон : 2, 40: 1
    Режим частоты кадров : Постоянный
    Частота кадров : 23, 976 (24000/1001) кадра/сек
    Цветовое пространство : YUV
    Субдискретизация насыщенности : 4: 2: 0
    Битовая глубина : 8 бит
    Тип развёртки : Прогрессивная
    Бит/(Пиксели*Кадры) : 0.154
    Размер потока : 1, 04 Гбайт (64%)
    Библиотека кодирования : x264 core 146 r2538 121396c
    Настройки программы : cabac=1/ref=10/deblock=1: -3: -3/analyse=0x3: 0x113/me=umh/subme=11/psy=1/psy_rd=0.97: 0.07/mixed_ref=1/me_range=48/chroma_me=1/trellis=2/8x8dct=1/cqm=0/deadzone=21, 11/fast_pskip=1/chroma_qp_offset=-3/threads=6/lookahead_threads=1/sliced_threads=0/nr=0/decimate=1/interlaced=0/bluray_compat=0/constrained_intra=0/bframes=10/b_pyramid=2/b_adapt=2/b_bias=0/direct=3/weightb=1/open_gop=0/weightp=2/keyint=240/keyint_min=23/scenecut=40/intra_refresh=0/rc_lookahead=40/rc=2pass/mbtree=1/bitrate=1615/ratetol=1.0/qcomp=0.60/qpmin=0/qpmax=69/qpstep=4/cplxblur=20.0/qblur=0.5/vbv_maxrate=50000/vbv_bufsize=62500/nal_hrd=none/filler=0/ip_ratio=1.40/aq=1: 1.00
    Default : Да
    Forced : Нет
    Statistics Tags Issue : mkvmerge v25.0.0 (\'Prog Noir\') 64-bit 2018-08-03 19: 11: 17/mkvmerge v6.6.0 (\'The Edge Of The In Between\') built on Dec 1 2013 17: 55: 00 2018-08-04 05: 47: 34
    FromStats_BitRate : 1612217
    FromStats_Duration : 01: 35: 20.089000000
    FromStats_FrameCount : 137145
    FromStats_StreamSize : 1152753531
    Аудио #1
    Идентификатор : 2
    Формат : AC-3
    Формат/Информация : Audio Coding 3
    Идентификатор кодека : A_AC3
    Продолжительность : 1 ч. 35 м.
    Вид битрейта : Постоянный
    Битрейт : 448 Кбит/сек
    Каналы : 6 каналов
    Расположение каналов : Front: L C R, Side: L R, LFE
    Частота : 48, 0 КГц
    Частота кадров : 31, 250 кадров/сек (1536 SPF)
    Битовая глубина : 16 бит
    Метод сжатия : С потерями
    Размер потока : 306 Мбайт (18%)
    Заголовок : MVO MuzOboz
    Язык : Russian
    ServiceKind/String : Complete Main
    Default : Да
    Forced : Нет
    Statistics Tags Issue : mkvmerge v25.0.0 (\'Prog Noir\') 64-bit 2018-08-03 19: 11: 17/mkvmerge v6.6.0 (\'The Edge Of The In Between\') built on Dec 1 2013 17: 55: 00 2018-08-04 05: 47: 34
    FromStats_BitRate : 448000
    FromStats_Duration : 01: 34: 51.744000000
    FromStats_FrameCount : 177867
    FromStats_StreamSize : 318737664
    Аудио #2
    Идентификатор : 3
    Формат : AC-3
    Формат/Информация : Audio Coding 3
    Идентификатор кодека : A_AC3
    Продолжительность : 1 ч. 35 м.
    Вид битрейта : Постоянный
    Битрейт : 384 Кбит/сек
    Каналы : 6 каналов
    Расположение каналов : Front: L C R, Side: L R, LFE
    Частота : 48, 0 КГц
    Частота кадров : 31, 250 кадров/сек (1536 SPF)
    Битовая глубина : 16 бит
    Метод сжатия : С потерями
    Размер потока : 262 Мбайт (16%)
    Заголовок : Original
    Язык : English
    ServiceKind/String : Complete Main
    Default : Нет
    Forced : Нет
    Statistics Tags Issue : mkvmerge v25.0.0 (\'Prog Noir\') 64-bit 2018-08-03 19: 11: 17/mkvmerge v6.6.0 (\'The Edge Of The In Between\') built on Dec 1 2013 17: 55: 00 2018-08-04 05: 47: 34
    FromStats_BitRate : 384000
    FromStats_Duration : 01: 35: 20.512000000
    FromStats_FrameCount : 178766
    FromStats_StreamSize : 274584576
    Текст #1
    Идентификатор : 4
    Формат : UTF-8
    Идентификатор кодека : S_TEXT/UTF8
    Идентификатор кодека/Информация : UTF-8 Plain Text
    Заголовок : Forced
    Язык : Russian
    Default : Да
    Forced : Нет
    Statistics Tags Issue : mkvmerge v25.0.0 (\'Prog Noir\') 64-bit 2018-08-03 19: 11: 17/mkvmerge v6.6.0 (\'The Edge Of The In Between\') built on Dec 1 2013 17: 55: 00 2018-08-04 05: 47: 34
    FromStats_BitRate : 0
    FromStats_Duration : 01: 05: 19.482000000
    FromStats_FrameCount : 6
    FromStats_StreamSize : 179
    Текст #2
    Идентификатор : 5
    Формат : UTF-8
    Идентификатор кодека : S_TEXT/UTF8
    Идентификатор кодека/Информация : UTF-8 Plain Text
    Заголовок : Full NETFLIX
    Язык : Russian
    Default : Нет
    Forced : Нет
    Statistics Tags Issue : mkvmerge v25.0.0 (\'Prog Noir\') 64-bit 2018-08-03 19: 11: 17/mkvmerge v6.6.0 (\'The Edge Of The In Between\') built on Dec 1 2013 17: 55: 00 2018-08-04 05: 47: 34
    FromStats_BitRate : 47
    FromStats_Duration : 01: 33: 43.534000000
    FromStats_FrameCount : 926
    FromStats_StreamSize : 33427
    Текст #3
    Идентификатор : 6
    Формат : UTF-8
    Идентификатор кодека : S_TEXT/UTF8
    Идентификатор кодека/Информация : UTF-8 Plain Text
    Заголовок : Full
    Язык : English
    Default : Нет
    Forced : Нет
    Statistics Tags Issue : mkvmerge v25.0.0 (\'Prog Noir\') 64-bit 2018-08-03 19: 11: 17/mkvmerge v6.6.0 (\'The Edge Of The In Between\') built on Dec 1 2013 17: 55: 00 2018-08-04 05: 47: 34
    FromStats_BitRate : 38
    FromStats_Duration : 01: 27: 47.971000000
    FromStats_FrameCount : 926
    FromStats_StreamSize : 25230
    Текст #4
    Идентификатор : 7
    Формат : UTF-8
    Идентификатор кодека : S_TEXT/UTF8
    Идентификатор кодека/Информация : UTF-8 Plain Text
    Заголовок : SDH
    Язык : English
    Default : Нет
    Forced : Нет
    Statistics Tags Issue : mkvmerge v25.0.0 (\'Prog Noir\') 64-bit 2018-08-03 19: 11: 17/mkvmerge v6.6.0 (\'The Edge Of The In Between\') built on Dec 1 2013 17: 55: 00 2018-08-04 05: 47: 34
    FromStats_BitRate : 44
    FromStats_Duration : 01: 32: 57.030000000
    FromStats_FrameCount : 1153
    FromStats_StreamSize : 31222

    Скриншоты для ознакомления



    Все одноименные релизы в Клубе
    Время раздачи: 24/7 (круглосуточно) (до появления первых 3-5 скачавших)

    Онлайн видео Закат цивилизации



    Закат цивилизации/Extinction (2018) WEB-DLRip [H.264] [MVO]
    Рейтинг →
     (голосов: 1, оценка 5/5, голосовать можно 1 раз )

    Другие торренты по теме:

  • Закат цивилизации / Extinction (2018) WEB-DL [H.264 / 1080p] [EN / RU, EN Sub]
  • Закат цивилизации / Extinction (2018) WEBRip [EN / RU Sub]
  • Закат цивилизации / Extinction (2018) WEB-DL [MVO] [AD]
  • Закат цивилизации / Extinction (2018) WEB-DLRip [H.264] [AVO]
  • Закат цивилизации / Extinction (2018) AC3 5.1 [hand made]
  • Закат цивилизации / Extinction (2018) WEB-DLRip [H.264] [MVO]
  • Закат цивилизации / Extinction (2018) WEB-DLRip [H.264 / 1080p] [MVO]
  • Закат цивилизации / Extinction (2018) WEB-DLRip [H.264 / 1080p] [MVO]


    • Комментарии (0):

      Информация

      Информация

        Посетители, находящиеся в группе Гости, не могут оставлять комментарии в данной новости.

        ↓ Меню




        ↓ Опрос

        Вы добавили сайт в закладки?
        Да
        Нет


        Популярное