.
Авторизация | Регистрация
bitok.xyz
» » Ангел-хранитель / The Guardian Angel (2018) WEB-DLRip [MVO] [AD] торрент скачать бесплатно


    Ангел-хранитель / The Guardian Angel (2018) WEB-DLRip [MVO] [AD] торрент скачать бесплатно

    Дата: 19-08-2018, 05:00 | .torrent скачали: 1

    Ангел-хранитель / The Guardian Angel (2018) WEB-DLRip [MVO] [AD]Производство: Финляндия, Дания, Хорватия/Art Films Productions, Tähtiloiste Elokuvatuotanto, MP Film Production
    Жанр: Триллер
    Режиссер: Арто Халонен

    Актеры
    Джош Лукас, Йохан Филип Асбек, Раде Шербеджия, Кристофер Фулфорд, Йоханнес Лассен, Сирон Бьёрн Мелвиль, Памела Тола, Микко Ноусиайнен, Сара Сулей, Рок Цветков

    Описание

    Для расследования серии загадочных ограблений банков и возможного заговора бывших нацистских приспешников, полицейскому детективу приходится применить нетрадиционные методы работы и прибегнуть к помощи гипнотизёра с сомнительной репутацией.

    Дата мировой премьеры: 12 марта 2018
    Продолжительность: 01: 41: 04
    Качество видео: WEB-DLRip
    Перевод: Многоголосый закадровый, любительский (MUZOBOZ)
    Субтитры: Отсутствуют
    Реклама: Присутствуют вставки текстовой рекламы
    Видео: XviD, 720x304, ~1557 Kbps
    Аудио: AC-3, 2 ch, 192 Kbps
    Общее
    Полное имя : E: NNMАнгел-хранительThe Guardian Angel 2018 WEB-DLRip.avi
    Формат : AVI
    Формат/Информация : Audio Video Interleave
    Профиль формата : OpenDML
    Размер файла : 1, 24 Гбайт
    Продолжительность : 1 ч. 41 м.
    Общий поток : 1762 Кбит/сек
    Видео
    Идентификатор : 0
    Формат : MPEG-4 Visual
    Профиль формата : Advanced Simple@L5
    Настройки формата : BVOP2/Custom Matrix
    Параметр BVOP формата : 2
    Параметр QPel формата : Нет
    Параметр GMC формата : Без точки перехода
    Параметр матрицы формата : Выборочная
    Идентификатор кодека : XVID
    Идентификатор кодека/Подсказка : XviD
    Продолжительность : 1 ч. 41 м.
    Битрейт : 1557 Кбит/сек
    Ширина : 720 пикселей
    Высота : 304 пикселя
    Соотношение сторон : 2, 35: 1
    Частота кадров : 23, 976 (24000/1001) кадра/сек
    Цветовое пространство : YUV
    Субдискретизация насыщенности : 4: 2: 0
    Битовая глубина : 8 бит
    Тип развёртки : Прогрессивная
    Метод сжатия : С потерями
    Бит/(Пиксели*Кадры) : 0.297
    Размер потока : 1, 10 Гбайт (88%)
    Библиотека кодирования : XviD 1.2.1 (UTC 2008-12-04)
    Аудио
    Идентификатор : 1
    Формат : AC-3
    Формат/Информация : Audio Coding 3
    Идентификатор кодека : 2000
    Продолжительность : 1 ч. 41 м.
    Вид битрейта : Постоянный
    Битрейт : 192 Кбит/сек
    Каналы : 2 канала
    Расположение каналов : Front: L R
    Частота : 48, 0 КГц
    Частота кадров : 31, 250 кадров/сек (1536 SPF)
    Битовая глубина : 16 бит
    Метод сжатия : С потерями
    Размер потока : 139 Мбайт (11%)
    Выравнивание : Соединение по промежуткам
    Продолжительность промежутка : 32 мс. (0, 77 видеокадр)
    ServiceKind/String : Complete Main

    Скриншоты для ознакомления



    Все одноименные релизы в Клубе Время раздачи: 24/7 (до появления первых 3-5 скачавших)

    Онлайн видео Ангел-хранитель



    Ангел-хранитель/The Guardian Angel (2018) WEB-DLRip [MVO] [AD]
    Рейтинг →
     (голосов: 1, оценка 5/5, голосовать можно 1 раз )

    Другие торренты по теме:

  • Guardian angel / Ангел-хранитель (2014) [1 том (19 глав)] [Манхва] [Русский] [JPG, PNG] [incomplete]
  • Мой ангел-хранитель / My.Guardian.Angel (2016)
  • Мой Ангел-Хранитель / My Guardian Angel (2016) WEB-DLRip
  • Мой Ангел-Хранитель / My Guardian Angel (2016) WEB-DLRip
  • Guardian angel / Ангел-хранитель (2014) [1 том (28 глав)] [Манхва] [Русский] [JPG, PNG] [incomplete]


    • Комментарии (0):

      Информация

      Информация

        Посетители, находящиеся в группе Гости, не могут оставлять комментарии в данной новости.

        ↓ Меню




        ↓ Опрос

        Вы добавили сайт в закладки?
        Да
        Нет


        Популярное