.
Авторизация | Регистрация

bitok.xyz

» » Апгрейд / Upgrade (2018) BDRip [H.264 / 720p-LQ] [MVO] торрент скачать бесплатно


    Апгрейд / Upgrade (2018) BDRip [H.264 / 720p-LQ] [MVO] торрент скачать бесплатно

    Дата: 22-08-2018, 05:00 | .torrent скачали: 2

    Апгрейд / Upgrade (2018) BDRip [H.264 / 720p-LQ] [MVO]Производство: Австралия, Blumhouse Productions, Goalpost Pictures
    Жанр: Боевик, Ужасы, Фантастика, Триллер
    Режиссер: Ли Уоннелл
    Продюсер: Джейсон Блум, Кайли Ду Фран, Брайан Кэвэна-Джонс, ...

    Актеры
    Логан Маршалл-Грин, Ричард Анастасиос, Роско Кэмпбелл, Ричард Коуторн, Линда Кроппер, Стив Даниелсен, Майкл М. Фостер, Бетти Гэбриел, Рена Галлахер, Харрисон Гилбертсон ...

    Описание

    Действие разворачивается в ближайшем будущем, в котором разнообразные технологии участвуют во всех аспектах человеческой жизни. Главный герой — технофоб, который мстит за убийство жены и собственную физическую травму, вызвавшую частичный паралич. Главное оружие возмездия — экспериментальный компьютерный чип-имплант под названием Stem.

    Рейтинг MPAA: R (лицам до 17 лет обязательно присутствие взрослого)
    Премьера (мир): 10 марта 2018, ...
    Релиз от: NNMClub
    Продолжительность: 01: 39: 55
    Качество видео: BDRip (batonchik )
    Перевод: Любительский многоголосый закадровый (Колобок)Ненорматив!
    Субтитры: Русские (форс., полные)
    Видео: AVC, 1280x536 (2.40: 1), 2736 Kbps, 23.976 fps
    Аудио: AC3, 6.0 ch, 48 kHz, 384 kbps | Русский--Information Вт 21.08.18 9: 57: 36 Standard output stream
    --Information Вт 21.08.18 9: 57: 36 Standard error stream
    ---Information Вт 21.08.18 9: 57: 45 y4m info: 1280x536p 1: 1 @ 24000/1001 fps (cfr)
    ---Information Вт 21.08.18 9: 57: 45 x264 info: using SAR=1/1
    ---Information Вт 21.08.18 9: 57: 45 x264 info: using cpu capabilities: MMX2 SSE2Fast SSSE3 SSE4.2 AVX
    ---Information Вт 21.08.18 9: 57: 45 x264 info: profile High, level 4.1
    ---Information Вт 21.08.18 12: 59: 18 x264 info: frame I: 1094 Avg QP: 14.82 size: 90513
    ---Information Вт 21.08.18 12: 59: 18 x264 info: frame P: 30035 Avg QP: 16.58 size: 34389
    ---Information Вт 21.08.18 12: 59: 18 x264 info: frame B: 112596 Avg QP: 18.42 size: 8155

    ---Information Вт 21.08.18 12: 59: 18 x264 info: consecutive B-frames: 2.7% 3.4% 9.2% 9.8% 13.4% 38.1% 6.8% 3.3% 3.5% 2.3% 3.2% 4.2%
    General
    Complete name : Апгрейд_Upgrade (2018) BDRip.H.264.720p.MVO.NNMClub.mkv
    Format : Matroska
    Format version : Version 4/Version 2
    File size : 2.18 GiB
    Duration : 1 h 39 min
    Overall bit rate : 3 122 kb/s
    Movie name : Апгрейд_Upgrade (2018) BDRip.H.264.720p.MVO.NNMClub
    Encoded date : UTC 2018-08-21 10: 22: 29
    Writing application : mkvmerge v18.0.0 (\'Apricity\') 64-bit
    Writing library : libebml v1.3.5 + libmatroska v1.4.8
    Video
    ID : 1
    Format : AVC
    Format/Info : Advanced Video Codec
    Format profile : High@L4.1
    Format settings : CABAC/8 Ref Frames
    Format settings, CABAC : Yes
    Format settings, ReFrames : 8 frames
    Codec ID : V_MPEG4/ISO/AVC
    Duration : 1 h 39 min
    Bit rate : 2 736 kb/s
    Width : 1 280 pixels
    Height : 536 pixels
    Display aspect ratio : 2.40: 1
    Frame rate mode : Constant
    Frame rate : 23.976 (24000/1001) FPS
    Color space : YUV
    Chroma subsampling : 4: 2: 0
    Bit depth : 8 bits
    Scan type : Progressive
    Bits/(Pixel*Frame) : 0.166
    Stream size : 1.91 GiB (88%)
    Title : Апгрейд_Upgrade (2018) BDRip.H.264.720p.MVO.NNMClub
    Writing library : x264 core 155 r2901 7d0ff22
    Encoding settings : cabac=1/ref=8/deblock=1: -3: -3/analyse=0x3: 0x133/me=umh/subme=10/psy=1/psy_rd=1.00: 0.25/mixed_ref=1/me_range=24/chroma_me=1/trellis=2/8x8dct=1/cqm=0/deadzone=6, 6/fast_pskip=0/chroma_qp_offset=-4/threads=12/lookahead_threads=3/sliced_threads=0/nr=0/decimate=0/interlaced=0/bluray_compat=0/constrained_intra=0/bframes=11/b_pyramid=2/b_adapt=2/b_bias=0/direct=1/weightb=1/open_gop=0/weightp=2/keyint=250/keyint_min=23/scenecut=40/intra_refresh=0/rc_lookahead=40/rc=2pass/mbtree=1/bitrate=2736/ratetol=1.0/qcomp=0.60/qpmin=0/qpmax=69/qpstep=4/cplxblur=20.0/qblur=0.5/vbv_maxrate=50000/vbv_bufsize=62500/nal_hrd=none/filler=0/ip_ratio=1.10/aq=1: 0.80
    Language : English
    Default : Yes
    Forced : No
    Audio
    ID : 2
    Format : AC-3
    Format/Info : Audio Coding 3
    Codec ID : A_AC3
    Duration : 1 h 39 min
    Bit rate mode : Constant
    Bit rate : 384 kb/s
    Channel(s) : 6 channels
    Channel positions : Front: L C R, Side: L R, LFE
    Sampling rate : 48.0 kHz
    Frame rate : 31.250 FPS (1536 SPF)
    Bit depth : 16 bits
    Compression mode : Lossy
    Stream size : 274 MiB (12%)
    Title : DVO - Колобок (перемонтаж из Koshara - Ash61)
    Language : Russian
    Service kind : Complete Main
    Default : Yes
    Forced : No
    Text #1
    ID : 3
    Format : UTF-8
    Codec ID : S_TEXT/UTF8
    Codec ID/Info : UTF-8 Plain Text
    Duration : 1 h 5 min
    Bit rate : 0 b/s
    Count of elements : 8
    Stream size : 475 Bytes (0%)
    Title : Форс.
    Language : Russian
    Default : Yes
    Forced : No
    Text #2
    ID : 4
    Format : UTF-8
    Codec ID : S_TEXT/UTF8
    Codec ID/Info : UTF-8 Plain Text
    Duration : 1 h 32 min
    Bit rate : 88 b/s
    Count of elements : 1290
    Stream size : 59.6 KiB (0%)
    Title : Полные
    Language : Russian
    Default : No
    Forced : No
    Menu
    00: 00: 00.000 : en: Chapter 01
    00: 05: 38.296 : en: Chapter 02
    00: 09: 04.919 : en: Chapter 03
    00: 15: 26.759 : en: Chapter 04
    00: 18: 42.704 : en: Chapter 05
    00: 21: 43.635 : en: Chapter 06
    00: 28: 37.382 : en: Chapter 07
    00: 34: 42.622 : en: Chapter 08
    00: 41: 17.057 : en: Chapter 09
    00: 47: 55.622 : en: Chapter 10
    00: 51: 14.529 : en: Chapter 11
    00: 56: 58.456 : en: Chapter 12
    01: 01: 34.565 : en: Chapter 13
    01: 05: 22.168 : en: Chapter 14
    01: 09: 10.938 : en: Chapter 15
    01: 16: 13.193 : en: Chapter 16
    01: 20: 17.103 : en: Chapter 17
    01: 25: 41.928 : en: Chapter 18
    01: 31: 45.249 : en: Chapter 19
    01: 33: 57.632 : en: Chapter 20

    Скриншоты для ознакомления



    Все одноименные релизы в Клубе
    Время раздачи: 24/7 (круглосуточно) (до появления первых 3-5 скачавших)

    Онлайн видео Апгрейд



    Апгрейд/Upgrade (2018) BDRip [H.264/720p-LQ] [MVO]
    Рейтинг →
     (голосов: 1, оценка 4/5, голосовать можно 1 раз )

    Другие торренты по теме:

  • Апгрейд / Upgrade (2018) DVD9
  • Григорий Лепс - Апгрейд#Upgrade (2016) [MP3|320 Kbps] <Pop>
  • Апгрейд / Upgrade (2018) TS [H.264 / 720p-LQ] [MVO] [AD]
  • Апгрейд / Upgrade (2018) WEB-DL [H.264 / 1080p-LQ] [EN / EN Sub]
  • Апгрейд / Upgrade (2018) BDRip [H.264 / 1080p] [EN / RU, EN Sub]
  • Апгрейд / Upgrade (2018) WEB-DLRip [H.264 / 1080p] [MVO] [AD]
  • Апгрейд / Upgrade (2018) BDRip [H.264 / 1080p] [MVO] [PR]
  • Апгрейд / Upgrade (2018) BDRemux [H.264 / 1080p] [EN / EN, Fr, Sp Sub]


    • Комментарии (0):

      Информация

      Информация

        Посетители, находящиеся в группе Гости, не могут оставлять комментарии в данной новости.

        ↓ Меню




        ↓ Опрос

        Вы добавили сайт в закладки?
        Да
        Нет


        Популярное