.
Авторизация | Регистрация

bitok.xyz

» » Небоскреб / Skyscraper (2018) WEB-DLRip [H.264] торрент скачать бесплатно


    Небоскреб / Skyscraper (2018) WEB-DLRip [H.264] торрент скачать бесплатно

    Дата: 8-09-2018, 05:00 | .torrent скачали: 3

    Небоскреб / Skyscraper (2018) WEB-DLRip [H.264]Производство: США, Legendary Entertainment, Flynn Picture Company, Seven Bucks Productions
    Жанр: Боевик, Триллер
    Режиссер: Роусон Маршалл Тёрбер
    Продюсер: Бо Флинн, Дэни Гарсиа, Хирам Гарсиа

    Актеры
    Дуэйн Джонсон, Нив Кэмпбелл, Пабло Шрайбер, Ноа Тейлор, Кевин Ранкин, Роланд Мёллер, Байрон Манн, Мэтт О`Лири, Адриан Холмс

    Описание

    Самый высокий и технологичный небоскрёб в мире становится центром огненной катастрофы. Только бывший агент ФБР, а теперь эксперт по безопасности Уилл Сойер может спасти вертикальный город под небесами. Когда нельзя доверять никому, а жизнь семьи в опасности, каждая секунда на счету.

    Возраст: 16+ (зрителям, достигшим 16 лет)
    Рейтинг MPAA: PG-13 (детям до 13 лет просмотр нежелателен)
    Дата мировой премьеры: 11 июля 2018
    Дата российской премьеры: 12 июля 2018, UPI
    Цифровой релиз: 6 сентября 2018, Universal
    Продолжительность: 01: 42: 24
    Качество видео: WEB-DLRip
    Перевод: Дублированный (iTunes)
    Субтитры: Русские (форсированные, хардсаб)
    Видео: AVC/H.264, 1064x442, ~1650 kbps
    Аудио: AC3, 6 ch, 384 kbps
    Общее
    Уникальный идентификатор : 187810904657691365023230619166848629668 (0x8D4B108423676BF7812C236A7D84BBA4)
    Полное имя : D: ЗагрузкиSkyscraper.(2018).WEB-DLRip-AVC.mkv
    Формат : Matroska
    Версия формата : Version 2
    Размер файла : 1, 45 Гбайт
    Продолжительность : 1 ч. 42 м.
    Общий поток : 2033 Кбит/сек
    Название фильма : Небоскрёб (2018) WEB-DLRip-AVC_ivanes20031987
    Дата кодирования : UTC 2018-09-06 07: 32: 06
    Программа кодирования : mkvmerge v4.4.0 (\'Die Wiederkehr\') сборка от Jan 3 2011 21: 40: 45
    Библиотека кодирования : libebml v1.0.0 + libmatroska v1.0.0
    Обложка : Yes
    Attachments : cover.jpg
    Видео
    Идентификатор : 1
    Формат : AVC
    Формат/Информация : Advanced Video Codec
    Профиль формата : High@L4.1
    Настройки формата : CABAC/12 Ref Frames
    Параметр CABAC формата : Да
    Параметр RefFrames формата : 12 кадров
    Идентификатор кодека : V_MPEG4/ISO/AVC
    Продолжительность : 1 ч. 42 м.
    Битрейт : 1650 Кбит/сек
    Ширина : 1064 пикселя
    Высота : 442 пикселя
    Соотношение сторон : 2, 40: 1
    Режим частоты кадров : Постоянный
    Частота кадров : 23, 976 (24000/1001) кадра/сек
    Цветовое пространство : YUV
    Субдискретизация насыщенности : 4: 2: 0
    Битовая глубина : 8 бит
    Тип развёртки : Прогрессивная
    Бит/(Пиксели*Кадры) : 0.146
    Размер потока : 1, 15 Гбайт (79%)
    Заголовок : Rip by ivanes20031987
    Библиотека кодирования : x264 core 155 r2901 7d0ff22
    Настройки программы : cabac=1/ref=12/deblock=1: -3: -3/analyse=0x3: 0x113/me=umh/subme=10/psy=1/psy_rd=1.00: 0.00/mixed_ref=1/me_range=32/chroma_me=1/trellis=2/8x8dct=1/cqm=0/deadzone=21, 11/fast_pskip=0/chroma_qp_offset=-2/threads=12/lookahead_threads=3/sliced_threads=0/nr=0/decimate=1/interlaced=0/bluray_compat=0/constrained_intra=0/bframes=14/b_pyramid=2/b_adapt=2/b_bias=0/direct=1/weightb=1/open_gop=0/weightp=2/keyint=240/keyint_min=23/scenecut=40/intra_refresh=0/rc_lookahead=60/rc=2pass/mbtree=0/bitrate=1650/ratetol=1.0/qcomp=0.60/qpmin=0/qpmax=69/qpstep=4/cplxblur=20.0/qblur=0.5/vbv_maxrate=50000/vbv_bufsize=62500/nal_hrd=none/filler=0/ip_ratio=1.40/pb_ratio=1.30/aq=1: 1.00
    Default : Да
    Forced : Нет
    Аудио
    Идентификатор : 2
    Формат : AC-3
    Формат/Информация : Audio Coding 3
    Коммерческое название : Dolby Digital
    Идентификатор кодека : A_AC3
    Продолжительность : 1 ч. 42 м.
    Вид битрейта : Постоянный
    Битрейт : 384 Кбит/сек
    Каналы : 6 каналов
    Channel layout : L R C LFE Ls Rs
    Частота : 48, 0 КГц
    Частота кадров : 31, 250 кадров/сек (1536 SPF)
    Битовая глубина : 16 бит
    Метод сжатия : С потерями
    Размер потока : 281 Мбайт (19%)
    Заголовок : iTunes
    Язык : Russian
    ServiceKind/String : Complete Main
    Default : Да
    Forced : Нет

    Скриншоты для ознакомления



    Все одноименные релизы в Клубе
    Время раздачи: 24/7 (до появления первых 3-5 скачавших)

    Онлайн видео Небоскреб



    Небоскреб/Skyscraper (2018) WEB-DLRip [H.264]
    Рейтинг →
     (голосов: 1, оценка 5/5, голосовать можно 1 раз )

    Другие торренты по теме:

  • Небоскреб / Skyscraper (2018) WEBRip [H.264 / 1080p-LQ] [EN / EN, KOR Sub]
  • Небоскреб / Skyscraper (2018) WEBRip [H.264 / 720p-LQ] [EN / KOR Sub]
  • Небоскреб / Skyscraper (2018) WEB-DL [H.264 / 720p-LQ]
  • Небоскреб / Skyscraper (2018) WEB-DL [1080p] ATV
  • Небоскреб / Skyscraper (2018) WEB-DLRip [576p] iPad
  • Небоскреб / Skyscraper (2018) WEB-DL [720p] ATV
  • Небоскреб / Skyscraper (2018) WEB-DLRip [480p] iPod
  • Небоскреб / Skyscraper (2018) BDRip [H.264 / 1080p]


    • Комментарии (0):

      Информация

      Информация

        Посетители, находящиеся в группе Гости, не могут оставлять комментарии в данной новости.

        ↓ Меню




        ↓ Опрос

        Вы добавили сайт в закладки?
        Да
        Нет


        Популярное