.
Авторизация | Регистрация
bitok.xyz
» » Властелин колец: Братство кольца / The Lord of the Rings: The Fellowship of the Ring (2001) UHD BDRemux [H.265 / 2160p] [4K, HDR, 10-bit] [Remastered] торрент скачать бесплатно


    Властелин колец: Братство кольца / The Lord of the Rings: The Fellowship of the Ring (2001) UHD BDRemux [H.265 / 2160p] [4K, HDR, 10-bit] [Remastered] торрент скачать бесплатно

    Дата: 21-09-2018, 05:00 | .torrent скачали: 359

    Властелин колец: Братство кольца / The Lord of the Rings: The Fellowship of the Ring (2001) UHD BDRemux [H.265 / 2160p] [4K, HDR, 10-bit] [Remastered]Производство: США, Новая Зеландия/New Line Cinema
    Жанр: фэнтези, драма, приключения
    Режиссер: Питер Джексон
    Продюсер: Питер Джексон, Барри М. Осборн, Тим Сандерс

    Актеры
    Элайджа Вуд, Шон Эстин, Иэн МакКеллен, Орландо Блум, Лив Тайлер, Вигго Мортенсен, Шон Бин, Кейт Бланшетт, Джон Рис-Дэвис и др.

    Описание

    Сказания о Средиземье — это хроника Великой войны за Кольцо, войны, длившейся не одну тысячу лет. Тот, кто владел Кольцом, получал власть над всеми живыми тварями, но был обязан служить злу.
    Тихая деревня, где живут хоббиты. Волшебник Гэндальф, придя на 111-й день рождения к своему старому другу Бильбо Бэггинсу, начинает вести разговор о кольце, которое Бильбо нашел много лет назад. Это кольцо принадлежало когда-то темному властителю Средиземья Саурону, и оно дает большую власть своему обладателю. Теперь Саурон хочет вернуть себе власть над Средиземьем. Бильбо отдает найденное кольцо своему племяннику Фродо, который пытается научиться справляться с тем страшным могуществом, которое дает ему кольцо…

    Возраст: 12+ (зрителям, достигшим 12 лет)
    Рейтинг MPAA: PG-13 (детям до 13 лет просмотр нежелателен)

    Релиз от: Ivantsov
    Продолжительность: 03: 48: 18
    Качество: UHD BDRemux (HDR, Remastered)
    Перевод: Профессиональный многоголосый, дублированный, авторский
    Субтитры: Русские, Украинские, Английские
    Видео: H.265/HEVC, 3840x2160, (16: 9), 54.7 Mbps, 23.976 fps
    Аудио 1: DTS-HD MA, 7 ch, 4767 kbps - Русский, Позитив ММ
    Аудио 2: AC3, 6 ch, 448 kbps - Русский, Дублированный + Позитив
    Аудио 3: DTS-HD HR, 7 ch, 2559 kbps - Русский, Киномания/Супербит-СРИ
    Аудио 4: DTS-ES, 6 ch, 1510 kbps - Русский, А.Гаврилов
    Аудио 5: DTS-ES, 6 ch, 1510 kbps - Русский, С.Рябов
    Аудио 6: DTS-HD MA, 7 ch, 4741 kbps - Английский
    Аудио 7: AC3, 2 ch, 192 kbps - Английский, Comm. Director Writers
    Аудио 8: AC3, 2 ch, 192 kbps - Английский, Comm. Design Team
    Аудио 9: AC3, 2 ch, 192 kbps - Английский, Comm. Prod. Post Prod
    Аудио 10: AC3, 2 ch, 192 kbps - Английский, Commentary with CastОбщее
    Уникальный идентификатор : 98595379132143621993390325216454876873 (0x4A2CC7808650903A1FC63CE005AF9EC9)
    Полное имя : The.Lord.of.the.Rings.2001.The.Fellowship.of.the.Ring.UHD.Re-Grade.4000nit.2160p.HEVC.HDR.IVA(RUS.UKR.ENG).ExKinoRay.mkv
    Формат : Matroska
    Версия формата : Version 4
    Размер файла : 113 Гбайт
    Продолжительность : 3 ч. 48 м.
    Режим общего битрейта : Переменный
    Общий поток : 71, 1 Мбит/сек
    Название фильма : Властелин Колец: Братство Кольца/The Lord of the Rings: The Fellowship of the Ring ( 2001 ) UHD Re-Grade HDR 4000nit | IVA(RUS.UKR.ENG) | ExKinoRay
    Дата кодирования : UTC 2018-09-13 20: 06: 44
    Программа кодирования : mkvmerge v26.0.0 (\'In The Game\') 64-bit
    Библиотека кодирования : libebml v1.3.6 + libmatroska v1.4.9
    Обложка : Yes
    Видео
    Идентификатор : 1
    Формат : HEVC
    Формат/Информация : High Efficiency Video Coding
    Коммерческое название : HDR10
    Профиль формата : Main10@L5.1@High
    Идентификатор кодека : V_MPEGH/ISO/HEVC
    Продолжительность : 3 ч. 48 м.
    Битрейт : 54, 7 Мбит/сек
    Ширина : 3840 пикселей
    Высота : 2160 пикселей
    Соотношение сторон : 16: 9
    Режим частоты кадров : Постоянный
    Частота кадров : 23, 976 (24000/1001) кадра/сек
    Цветовое пространство : YUV
    Субдискретизация насыщенности : 4: 2: 0 (Type 2)
    Битовая глубина : 10 бит
    Бит/(Пиксели*Кадры) : 0.275
    Размер потока : 87, 2 Гбайт (77%)
    Заголовок : The.Lord.of.the.Rings: The.Fellowship.of.the.Ring.2001.UHD.Re-Grade.4000nit
    Default : Да
    Forced : Нет
    Цветовой диапазон : Limited
    Основные цвета : BT.2020
    Характеристики трансфера : PQ
    Коэффициенты матрицы : BT.2020 non-constant
    MasteringDisplay_ColorPrimaries : Display P3
    MasteringDisplay_Luminance : min: 0.0000 cd/m2, max: 4000 cd/m2
    MaxCLL : 2000 cd/m2
    MaxFALL : 800 cd/m2
    Аудио #1
    Идентификатор : 2
    Формат : DTS ES XXCH XLL
    Формат/Информация : Digital Theater Systems
    Коммерческое название : DTS-HD Master Audio
    Идентификатор кодека : A_DTS
    Продолжительность : 3 ч. 48 м.
    Вид битрейта : Переменный
    Битрейт : 4767 Кбит/сек
    Каналы : 7 каналов
    Channel layout : C L R Ls Rs LFE Cb
    Частота : 48, 0 КГц
    Частота кадров : 93, 750 кадра/сек (512 SPF)
    Битовая глубина : 24 бит
    Метод сжатия : Без потерь
    Размер потока : 7, 60 Гбайт (7%)
    Заголовок : | MVO, Позитив ММ |
    Язык : Russian
    Default : Нет
    Forced : Нет
    Аудио #2
    Идентификатор : 3
    Формат : AC-3
    Формат/Информация : Audio Coding 3
    Коммерческое название : Dolby Digital
    Идентификатор кодека : A_AC3
    Продолжительность : 3 ч. 48 м.
    Вид битрейта : Постоянный
    Битрейт : 448 Кбит/сек
    Каналы : 6 каналов
    Channel layout : L R C LFE Ls Rs
    Частота : 48, 0 КГц
    Частота кадров : 31, 250 кадров/сек (1536 SPF)
    Битовая глубина : 16 бит
    Метод сжатия : С потерями
    Размер потока : 732 Мбайт (1%)
    Заголовок : | Дублированный + Позитив |
    Язык : Russian
    ServiceKind/String : Complete Main
    Default : Нет
    Forced : Нет
    Аудио #3
    Идентификатор : 4
    Формат : DTS ES XXCH XBR
    Формат/Информация : Digital Theater Systems
    Коммерческое название : DTS-HD High Resolution Audio
    Идентификатор кодека : A_DTS
    Продолжительность : 3 ч. 48 м.
    Вид битрейта : Постоянный
    Битрейт : 2559 Кбит/сек
    Каналы : 7 каналов
    Channel layout : C L R Ls Rs LFE Cb
    Частота : 48, 0 КГц
    Частота кадров : 93, 750 кадра/сек (512 SPF)
    Битовая глубина : 24 бит
    Метод сжатия : С потерями
    Размер потока : 4, 08 Гбайт (4%)
    Заголовок : | Киномания/Супербит-СРИ |
    Язык : Russian
    Default : Нет
    Forced : Нет
    Аудио #4
    Идентификатор : 5
    Формат : DTS ES XXCH
    Формат/Информация : Digital Theater Systems
    Коммерческое название : DTS-ES Discrete
    Идентификатор кодека : A_DTS
    Продолжительность : 3 ч. 48 м.
    Вид битрейта : Постоянный
    Битрейт : 1510 Кбит/сек
    Каналы : 6 каналов
    Channel(s)_Original : 7 каналов
    Channel layout : C L R Ls Rs Cb LFE
    Частота : 48, 0 КГц
    Частота кадров : 93, 750 кадра/сек (512 SPF)
    Битовая глубина : 24 бит
    Метод сжатия : С потерями
    Размер потока : 2, 41 Гбайт (2%)
    Заголовок : | AVO, А.Гаврилов |
    Язык : Russian
    Default : Нет
    Forced : Нет
    Аудио #5
    Идентификатор : 6
    Формат : DTS ES XXCH
    Формат/Информация : Digital Theater Systems
    Коммерческое название : DTS-ES Discrete
    Идентификатор кодека : A_DTS
    Продолжительность : 3 ч. 48 м.
    Вид битрейта : Постоянный
    Битрейт : 1510 Кбит/сек
    Каналы : 6 каналов
    Channel(s)_Original : 7 каналов
    Channel layout : C L R Ls Rs Cb LFE
    Частота : 48, 0 КГц
    Частота кадров : 93, 750 кадра/сек (512 SPF)
    Битовая глубина : 24 бит
    Метод сжатия : С потерями
    Размер потока : 2, 41 Гбайт (2%)
    Заголовок : | AVO, С.Рябов |
    Язык : Russian
    Default : Нет
    Forced : Нет
    Аудио #6
    Идентификатор : 7
    Формат : DTS ES XXCH XLL
    Формат/Информация : Digital Theater Systems
    Коммерческое название : DTS-HD Master Audio
    Идентификатор кодека : A_DTS
    Продолжительность : 3 ч. 48 м.
    Вид битрейта : Переменный
    Битрейт : 4741 Кбит/сек
    Каналы : 7 каналов
    Channel layout : C L R Ls Rs LFE Cb
    Частота : 48, 0 КГц
    Частота кадров : 93, 750 кадра/сек (512 SPF)
    Битовая глубина : 24 бит
    Метод сжатия : Без потерь
    Размер потока : 7, 56 Гбайт (7%)
    Заголовок : | Original |
    Язык : English
    Default : Да
    Forced : Нет
    Аудио #7
    Идентификатор : 8
    Формат : AC-3
    Формат/Информация : Audio Coding 3
    Коммерческое название : Dolby Digital
    Идентификатор кодека : A_AC3
    Продолжительность : 3 ч. 48 м.
    Вид битрейта : Постоянный
    Битрейт : 192 Кбит/сек
    Каналы : 2 канала
    Channel layout : L R
    Частота : 48, 0 КГц
    Частота кадров : 31, 250 кадров/сек (1536 SPF)
    Битовая глубина : 16 бит
    Метод сжатия : С потерями
    Размер потока : 314 Мбайт (0%)
    Заголовок : | Comm. Director Writers |
    Язык : English
    ServiceKind/String : Complete Main
    Default : Нет
    Forced : Нет
    Аудио #8
    Идентификатор : 9
    Формат : AC-3
    Формат/Информация : Audio Coding 3
    Коммерческое название : Dolby Digital
    Идентификатор кодека : A_AC3
    Продолжительность : 3 ч. 48 м.
    Вид битрейта : Постоянный
    Битрейт : 192 Кбит/сек
    Каналы : 2 канала
    Channel layout : L R
    Частота : 48, 0 КГц
    Частота кадров : 31, 250 кадров/сек (1536 SPF)
    Битовая глубина : 16 бит
    Метод сжатия : С потерями
    Размер потока : 314 Мбайт (0%)
    Заголовок : | Comm. Design Team |
    Язык : English
    ServiceKind/String : Complete Main
    Default : Нет
    Forced : Нет
    Аудио #9
    Идентификатор : 10
    Формат : AC-3
    Формат/Информация : Audio Coding 3
    Коммерческое название : Dolby Digital
    Идентификатор кодека : A_AC3
    Продолжительность : 3 ч. 48 м.
    Вид битрейта : Постоянный
    Битрейт : 192 Кбит/сек
    Каналы : 2 канала
    Channel layout : L R
    Частота : 48, 0 КГц
    Частота кадров : 31, 250 кадров/сек (1536 SPF)
    Битовая глубина : 16 бит
    Метод сжатия : С потерями
    Размер потока : 314 Мбайт (0%)
    Заголовок : | Comm. Prod. Post Prod. |
    Язык : English
    ServiceKind/String : Complete Main
    Default : Нет
    Forced : Нет
    Аудио #10
    Идентификатор : 11
    Формат : AC-3
    Формат/Информация : Audio Coding 3
    Коммерческое название : Dolby Digital
    Идентификатор кодека : A_AC3
    Продолжительность : 3 ч. 48 м.
    Вид битрейта : Постоянный
    Битрейт : 192 Кбит/сек
    Каналы : 2 канала
    Channel layout : L R
    Частота : 48, 0 КГц
    Частота кадров : 31, 250 кадров/сек (1536 SPF)
    Битовая глубина : 16 бит
    Метод сжатия : С потерями
    Размер потока : 314 Мбайт (0%)
    Заголовок : | Commentary with Cast |
    Язык : English
    ServiceKind/String : Complete Main
    Default : Нет
    Forced : Нет
    Текст #1
    Идентификатор : 12
    Формат : ASS
    Идентификатор кодека : S_TEXT/ASS
    Идентификатор кодека/Информация : Advanced Sub Station Alpha
    Продолжительность : 2 ч. 49 м.
    Битрейт : 3 бит/сек
    ElementCount : 54
    Метод сжатия : Без потерь
    Размер потока : 4, 61 Кбайт (0%)
    Заголовок : Forced Pozitiv MM
    Язык : Russian
    Default : Да
    Forced : Да
    Текст #2
    Идентификатор : 13
    Формат : UTF-8
    Идентификатор кодека : S_TEXT/UTF8
    Идентификатор кодека/Информация : UTF-8 Plain Text
    Продолжительность : 2 ч. 49 м.
    Битрейт : 2 бит/сек
    ElementCount : 54
    Размер потока : 2, 93 Кбайт (0%)
    Заголовок : Forced Pozitiv MM
    Язык : Russian
    Default : Нет
    Forced : Да
    Текст #3
    Идентификатор : 14
    Формат : UTF-8
    Идентификатор кодека : S_TEXT/UTF8
    Идентификатор кодека/Информация : UTF-8 Plain Text
    Продолжительность : 3 ч. 19 м.
    Битрейт : 64 бит/сек
    ElementCount : 1744
    Размер потока : 93, 7 Кбайт (0%)
    Заголовок : Pozitiv MM
    Язык : Russian
    Default : Нет
    Forced : Нет
    Текст #4
    Идентификатор : 15
    Формат : UTF-8
    Идентификатор кодека : S_TEXT/UTF8
    Идентификатор кодека/Информация : UTF-8 Plain Text
    Продолжительность : 3 ч. 19 м.
    Битрейт : 61 бит/сек
    ElementCount : 1716
    Размер потока : 90, 4 Кбайт (0%)
    Заголовок : Henneth-annun
    Язык : Russian
    Default : Нет
    Forced : Нет
    Текст #5
    Идентификатор : 16
    Формат : UTF-8
    Идентификатор кодека : S_TEXT/UTF8
    Идентификатор кодека/Информация : UTF-8 Plain Text
    Продолжительность : 3 ч. 21 м.
    Битрейт : 61 бит/сек
    ElementCount : 1728
    Размер потока : 91, 2 Кбайт (0%)
    Заголовок : Full
    Язык : Ukrainian
    Default : Нет
    Forced : Нет
    Текст #6
    Идентификатор : 17
    Формат : ASS
    Идентификатор кодека : S_TEXT/ASS
    Идентификатор кодека/Информация : Advanced Sub Station Alpha
    Продолжительность : 2 ч. 59 м.
    Битрейт : 3 бит/сек
    ElementCount : 77
    Метод сжатия : Без потерь
    Размер потока : 4, 47 Кбайт (0%)
    Заголовок : Forced
    Язык : English
    Default : Нет
    Forced : Да
    Текст #7
    Идентификатор : 18
    Формат : ASS
    Идентификатор кодека : S_TEXT/ASS
    Идентификатор кодека/Информация : Advanced Sub Station Alpha
    Продолжительность : 3 ч. 19 м.
    Битрейт : 76 бит/сек
    ElementCount : 1777
    Метод сжатия : Без потерь
    Размер потока : 111 Кбайт (0%)
    Заголовок : Full
    Язык : English
    Default : Нет
    Forced : Нет
    Текст #8
    Идентификатор : 19
    Формат : PGS
    Идентификатор кодека : S_HDMV/PGS
    Идентификатор кодека/Информация : Picture based subtitle format used on BDs/HD-DVDs
    Продолжительность : 2 ч. 51 м.
    Битрейт : 1150 бит/сек
    ElementCount : 116
    Размер потока : 1, 41 Мбайт (0%)
    Заголовок : PGS Forced Pozitiv MM
    Язык : Russian
    Default : Нет
    Forced : Нет
    Текст #9
    Идентификатор : 20
    Формат : PGS
    Идентификатор кодека : S_HDMV/PGS
    Идентификатор кодека/Информация : Picture based subtitle format used on BDs/HD-DVDs
    Продолжительность : 3 ч. 19 м.
    Битрейт : 26, 6 Кбит/сек
    ElementCount : 3488
    Размер потока : 38, 0 Мбайт (0%)
    Заголовок : PGS Pozitiv MM
    Язык : Russian
    Default : Нет
    Forced : Нет
    Текст #10
    Идентификатор : 21
    Формат : PGS
    Идентификатор кодека : S_HDMV/PGS
    Идентификатор кодека/Информация : Picture based subtitle format used on BDs/HD-DVDs
    Продолжительность : 2 ч. 29 м.
    Битрейт : 543 бит/сек
    ElementCount : 66
    Размер потока : 593 Кбайт (0%)
    Заголовок : PGS Forced
    Язык : English
    Default : Нет
    Forced : Нет
    Текст #11
    Идентификатор : 22
    Формат : PGS
    Идентификатор кодека : S_HDMV/PGS
    Идентификатор кодека/Информация : Picture based subtitle format used on BDs/HD-DVDs
    Продолжительность : 3 ч. 47 м.
    Битрейт : 19, 3 Кбит/сек
    ElementCount : 3658
    Размер потока : 31, 4 Мбайт (0%)
    Заголовок : PGS SDH
    Язык : English
    Default : Нет
    Forced : Нет
    Меню
    00: 00: 00.000 : en: 1. Prologue: One Ring To Rule Them All...
    00: 07: 36.790 : en: 2. Concerning Hobbits
    00: 10: 35.552 : en: 3. The Shire
    00: 15: 39.856 : en: 4. Very Old Friends
    00: 19: 58.489 : en: 5. A Long-expected Party
    00: 25: 32.614 : en: 6. Farewell Dear Bilbo
    00: 29: 57.379 : en: 7. Keep It Secret, Keep It Safe
    00: 32: 10.679 : en: 8. The Account Of Isildur
    00: 34: 51.798 : en: 9. At The Green Dragon
    00: 36: 18.176 : en: 10. The Shadow of the Past
    00: 45: 04.160 : en: 11. The Passing of the Elves
    00: 46: 44.301 : en: 12. Saruman The White
    00: 51: 21.412 : en: 13. A Short Cut to Mushrooms
    00: 55: 12.434 : en: 14. Bucklebury Ferry
    00: 57: 30.072 : en: 15. At the Sign of The Prancing Pony
    01: 03: 31.516 : en: 16. The Nazgul
    01: 07: 16.115 : en: 17. The Midgewater Marshes
    01: 08: 53.588 : en: 18. The Spoiling Of Isengard
    01: 10: 35.940 : en: 19. A Knife in the Dark
    01: 15: 15.386 : en: 20. The Caverns of Isengard
    01: 17: 46.620 : en: 21. Flight to the Ford
    01: 24: 11.546 : en: 22. Rivendell
    01: 26: 12.501 : en: 23. Many Meetings
    01: 29: 41.585 : en: 24. The Fate of the Ring
    01: 33: 14.672 : en: 25. The Sword That Was Broken
    01: 35: 54.082 : en: 26. The Evenstar
    01: 37: 32.972 : en: 27. The Council of Elrond
    01: 45: 45.000 : en: 28. Gilraen\'s Memorial
    01: 46: 59.826 : en: 29. Bilbo\'s Gifts
    01: 48: 43.221 : en: 30. The Departure of the Fellowship
    01: 50: 00.631 : en: 31. The Ring Goes South
    01: 53: 06.442 : en: 32. The Pass of Caradhras
    01: 57: 52.728 : en: 33. Moria
    02: 04: 18.113 : en: 34. A Journey in the Dark
    02: 10: 48.461 : en: 35. Balin\'s Tomb
    02: 20: 13.192 : en: 36. The Bridge of Khazad-Dum
    02: 29: 54.648 : en: 37. Lothlorien
    02: 33: 07.299 : en: 38. Caras Galadhorn
    02: 40: 24.319 : en: 39. The Mirror of Galadriel
    02: 46: 04.325 : en: 40. The Fighting Uruk-Hai
    02: 47: 45.676 : en: 41. Farewell to Lorien
    02: 53: 08.207 : en: 42. The Great River
    02: 58: 00.457 : en: 43. Parth Galen
    03: 04: 28.219 : en: 44. The Breaking of the Fellowship
    03: 11: 44.155 : en: 45. The Departure of Boromir
    03: 14: 26.484 : en: 46. The Road Goes Ever On
    03: 20: 44.653 : en: 47. Credits
    03: 28: 25.155 : en: 48. Official Fan Club CreditsYouTube Просмотр 4K HDR-контента на ПК
    Скриншоты для ознакомления


    Релизы фильма Властелин колец: Братство кольца/The Lord of the Rings: The Fellowship of the Ring на NNM Club
    Время раздачи: с 9: 00 до 23: 00

    Онлайн видео Властелин колец: Братство кольца



    Властелин колец: Братство кольца/The Lord of the Rings: The Fellowship of the Ring (2001) UHD BDRemux [H.265/2160p] [4K, HDR, 10-bit] [Remastered]
    Рейтинг →
     (голосов: 1, оценка 4/5, голосовать можно 1 раз )

    Другие торренты по теме:

  • Властелин колец: Трилогия (The Lord of the Rings: Trilogy) (Extended Cut) (2001 / 2002 / 2003) [MP4 | 960x400] <BDRip H.264>
  • Властелин колец: Трилогия / The Lord of the Rings: Trilogy (2001,2002,2003) BDRip [H.264] [Extended Editions] скачать через торрент бесплатно
  • Властелин колец / The Lord of the Rings (2001,2002,2003) BDRip [1080p] [Extended Edition] [Трилогия] скачать через торрент бесплатно
  • Властелин колец / The Lord of the Rings (2001,2002,2003) BDRip [Extended Edition] [H.264 / 1080p-LQ] [Hi10P]
  • Властелин колец / The Lord of the Rings (2001,2002,2003) BDRip [1080p] [Extended Edition] [Трилогия]
  • Властелин колец: Братство кольца / The Lord of the Rings: The Fellowship of the Ring (2001) BDRip [720p] [Theatrical Editions] [hand made 60fps] скачать через торрент бесплатно
  • Властелин колец: Две крепости / The Lord of the Rings: The Two Towers (2002) 2*DVD5 [BD -> DVD] [Расширенная версия / Extended edition] скачать через торрент бесплатно
  • Властелин колец: Возвращение короля / The Lord of the Rings: The Return of the King (2003) 2*DVD5 [BD -> DVD] [Расширенная версия / Extended edition] скачать через торрент бесплатно


    • Комментарии (0):

      Информация

      Информация

        Посетители, находящиеся в группе Гости, не могут оставлять комментарии в данной новости.

        ↓ Меню




        ↓ Опрос

        Вы добавили сайт в закладки?
        Да
        Нет


        Популярное

        Полицейский с Рублёвки. Новогодний беспредел 2 (2019) CamRip [AD]

        (скачиваний: 2276)
        Властелин колец: Трилогия / The Lord of the Rings: Trilogy (2001,2002,2003) BDRip [H.264] [Extended Editions] скачать через торрент бесплатно

        (скачиваний: 672)
        Властелин колец / The Lord of the Rings (2001,2002,2003) BDRip [Extended Edition] [H.264 / 1080p-LQ] [Hi10P]

        (скачиваний: 661)
        Начало / Inception (2010) BDRip [H.265 / 1080p]

        (скачиваний: 642)
        Властелин колец / The Lord of the Rings (2001,2002,2003) BDRip [1080p] [Extended Edition] [Трилогия]

        (скачиваний: 608)
        Квартирник НТВ у Маргулиса. Новогодний выпуск (31.12.2019) WEB-DL [H.264 / 1080p-LQ]

        (скачиваний: 456)
        Каникулы off-line (2018) WEBRip

        (скачиваний: 438)
        Хоббит: Трилогия / The Hobbit: Trilogy (2012, 2013, 2014) BDRip [H.265 / 1080p-LQ] [10-bit] [Расширенная версия]

        (скачиваний: 398)
        Властелин колец / The Lord of the Rings (2001,2002,2003) BDRip [1080p] [Extended Edition] [Трилогия] скачать через торрент бесплатно

        (скачиваний: 277)
        Во все тяжкие / Breaking Bad (2008-2013) BDRip [H.264 / 1080p] (сезон 1-5, серии 1-62 из 62) Кубик в Кубе, LostFilm скачать через торрент бесплатно

        (скачиваний: 256)