.
Авторизация | Регистрация

bitok.xyz

» » Веном / Venom (2018) TS [H.264 / 720p-LQ] [AD] торрент скачать бесплатно


    Веном / Venom (2018) TS [H.264 / 720p-LQ] [AD] торрент скачать бесплатно

    Дата: 5-10-2018, 05:00 | .torrent скачали: 8

    Веном / Venom (2018) TS [H.264 / 720p-LQ] [AD]Производство: США, Columbia Pictures Corporation, Marvel Entertainment, Pascal Pictures, Sony Pictures Entertainment (SPE), Tencent Pictures
    Жанр: Ужасы, Фантастика, Боевик, Триллер
    Режиссер: Рубен Фляйшер
    Продюсер: Ави Арад, Эми Паскаль, Стэн Ли

    Актеры
    Том Харди, Мишель Уильямс, Марчелла Браджио, Вуди Харрельсон, Дженни Слейт, Риз Ахмед, Мак Брандт, Рон Сепас Джонс, Мишель Ли, Мелора Уолтерс

    Описание

    Что если в один прекрасный день в тебя вселяется существо-симбиот, которое наделяет тебя сверхчеловеческими способностями? Вот только Веном — симбиот совсем недобрый, и договориться с ним невозможно. Хотя нужно ли договариваться?.. Ведь в какой-то момент ты понимаешь, что быть плохим вовсе не так уж и плохо. Так даже веселее. В мире и так слишком много супергероев! Мы — Веном!

    Возраст: 16+ (зрителям, достигшим 16 лет)
    Рейтинг MPAA: PG-13 (детям до 13 лет просмотр нежелателен)
    Дата мировой премьеры: 3 октября 2018
    Дата российской премьеры: 4 октября 2018, WDSSPR
    Продолжительность: 01: 31: 54
    Качество видео: TS
    Перевод: Дублированный
    Субтитры: Отсутствуют
    Реклама: Присутствуют текстовые вставки рекламы
    Видео: AVC/H.264, 1280x544 (2.35: 1), 3835 kbps, 23.976 fps
    Аудио: АС3, 2 ch, 48 kHz, 384 Kbps | РусскийОбщее
    Уникальный идентификатор : 228378838541067186798633635518635746162 (0xABD02A14E094F5F582286CA61A52A372)
    Полное имя : D: Веном.2018.TS.720p.NNMClub.mkv
    Формат : Matroska
    Версия формата : Version 4
    Размер файла : 2, 71 Гбайт
    Продолжительность : 1 ч. 31 м.
    Режим общего битрейта : Переменный
    Общий поток : 4221 Кбит/сек
    Дата кодирования : UTC 2018-10-04 18: 18: 53
    Программа кодирования : mkvmerge v8.3.0 (\'Over the Horizon\') 64bit
    Библиотека кодирования : libebml v1.3.1 + libmatroska v1.4.2
    Видео
    Идентификатор : 1
    Формат : AVC
    Формат/Информация : Advanced Video Codec
    Профиль формата : High@L4.1
    Настройки формата : CABAC/4 Ref Frames
    Параметр CABAC формата : Да
    Параметр RefFrames формата : 4 кадра
    Идентификатор кодека : V_MPEG4/ISO/AVC
    Продолжительность : 1 ч. 31 м.
    Вид битрейта : Переменный
    Битрейт : 3835 Кбит/сек
    Максимальный битрейт : 4000 Кбит/сек
    Ширина : 1280 пикселей
    Высота : 544 пикселя
    Соотношение сторон : 2, 35: 1
    Режим частоты кадров : Постоянный
    Частота кадров : 23, 976 (24000/1001) кадра/сек
    Стандарт вещания : Component
    Цветовое пространство : YUV
    Субдискретизация насыщенности : 4: 2: 0
    Битовая глубина : 8 бит
    Тип развёртки : Прогрессивная
    Бит/(Пиксели*Кадры) : 0.230
    Размер потока : 2, 46 Гбайт (91%)
    Язык : English
    Default : Да
    Forced : Нет
    Цветовой диапазон : Limited
    Основные цвета : BT.709
    Характеристики трансфера : BT.709
    Коэффициенты матрицы : BT.709
    Аудио
    Идентификатор : 2
    Формат : AC-3
    Формат/Информация : Audio Coding 3
    Коммерческое название : Dolby Digital
    Идентификатор кодека : A_AC3
    Продолжительность : 1 ч. 31 м.
    Вид битрейта : Постоянный
    Битрейт : 384 Кбит/сек
    Каналы : 2 канала
    Channel layout : L R
    Частота : 48, 0 КГц
    Частота кадров : 31, 250 кадров/сек (1536 SPF)
    Битовая глубина : 16 бит
    Метод сжатия : С потерями
    Размер потока : 252 Мбайт (9%)
    Язык : Russian
    ServiceKind/String : Complete Main
    Default : Да
    Forced : Нет

    Скриншоты для ознакомления



    Все одноименные релизы в Клубе
    Время раздачи: 24/7 (до появления первых 3-5 скачавших)

    Онлайн видео Веном



    Веном/Venom (2018) TS [H.264/720p-LQ] [AD]
    Рейтинг →
     (голосов: 1, оценка 4/5, голосовать можно 1 раз )

    Другие торренты по теме:

  • Веном / Venom (2018) TC [H.264 / 720p-LQ] [Звук с CamRip, AD]
  • Веном / Venom (2018) TC [MVO, AD]
  • Веном / Venom (2018) WEBRip [MVO] [AD]
  • Веном / Venom (2018) WEBRip [H.264 / 720p-LQ] [MVO] [AD]
  • Веном / Venom (2018) WEBRip [H.264 / 1080p-LQ] [MVO, AD]
  • Веном / Venom (2018) WEBRip [H.264 / 1080p] [EN , EN Sub]
  • Веном / Venom (2018) WEBRip [H.264 / 1080p] [UKR, EN / En Sub]
  • Веном / Venom (2018) WEBRip [UKR, EN]


    • Комментарии (0):

      Информация

      Информация

        Посетители, находящиеся в группе Гости, не могут оставлять комментарии в данной новости.

        ↓ Меню




        ↓ Опрос

        Вы добавили сайт в закладки?
        Да
        Нет


        Популярное