.
Авторизация | Регистрация

bitok.xyz

» » Углерод / Carbone (2017) BDRip [MVO] торрент скачать бесплатно


    Углерод / Carbone (2017) BDRip [MVO] торрент скачать бесплатно

    Дата: 15-10-2018, 05:00 | .torrent скачали: 5

    Углерод / Carbone (2017) BDRip [MVO]Производство: Франция, Бельгия/Canal+, Europa Corp
    Жанр: Триллер, криминал
    Режиссер: Оливье Маршаль

    Актеры
    Бенуа Мажимель, Идир Чендер, Лаура Смет, Микаэль Юн, Дани, Патрик Каталифо, Жерар Депардьё, Мусса Мааскри, Фридерик Эпо

    Описание

    Боясь потерять свой семейный бизнес, обычный парень Антуан Рока придумывает аферу, которая в будущем станет мошенничеством века. Ввязавшись в криминал, он сталкивается с предательством друзей, убийствами и подтасовкой.

    Продолжительность: 01: 43: 46
    Качество видео: BDRip
    Перевод: Многоголосый закадровый, профессиональный (HDRezka Studio)
    Субтитры: Отсутствуют
    Видео: MPEG4, XviD, 720x304, 1557 Kbps
    Аудио #1: AC3, 2 ch, 192 kbps - Русский
    Аудио #2: AC3, 6 ch, 256 kbps - Французский
    Общее
    Полное имя : E: NNMУглеродCarbone 2017 BDRip.avi
    Формат : AVI
    Формат/Информация : Audio Video Interleave
    Размер файла : 1, 46 Гбайт
    Продолжительность : 1 ч. 43 м.
    Общий поток : 2019 Кбит/сек
    Программа кодирования : VirtualDubMod 1.5.10.3 |www.virtualdub-fr.org|| (build 2550/release)
    Библиотека кодирования : VirtualDubMod build 2550/release
    Видео
    Идентификатор : 0
    Формат : MPEG-4 Visual
    Профиль формата : Advanced Simple@L5
    Настройки формата : BVOP1/Custom Matrix
    Параметр BVOP формата : 1
    Параметр QPel формата : Нет
    Параметр GMC формата : Без точки перехода
    Параметр матрицы формата : Выборочная
    Идентификатор кодека : XVID
    Идентификатор кодека/Подсказка : XviD
    Продолжительность : 1 ч. 43 м.
    Битрейт : 1557 Кбит/сек
    Ширина : 720 пикселей
    Высота : 304 пикселя
    Соотношение сторон : 2, 35: 1
    Частота кадров : 24, 000 кадра/сек
    Цветовое пространство : YUV
    Субдискретизация насыщенности : 4: 2: 0
    Битовая глубина : 8 бит
    Тип развёртки : Прогрессивная
    Метод сжатия : С потерями
    Бит/(Пиксели*Кадры) : 0.296
    Размер потока : 1, 13 Гбайт (77%)
    Библиотека кодирования : XviD 73
    Аудио #1
    Идентификатор : 1
    Формат : AC-3
    Формат/Информация : Audio Coding 3
    Идентификатор кодека : 2000
    Продолжительность : 1 ч. 43 м.
    Вид битрейта : Постоянный
    Битрейт : 192 Кбит/сек
    Каналы : 2 канала
    Расположение каналов : Front: L R
    Частота : 48, 0 КГц
    Частота кадров : 31, 250 кадров/сек (1536 SPF)
    Битовая глубина : 16 бит
    Метод сжатия : С потерями
    Размер потока : 143 Мбайт (10%)
    Выравнивание : Разделение по промежуткам
    Продолжительность промежутка : 42 мс. (1, 00 видеокадр)
    Время предзагрузки промежутка : 500 мс.
    ServiceKind/String : Complete Main
    Аудио #2
    Идентификатор : 2
    Формат : AC-3
    Формат/Информация : Audio Coding 3
    Идентификатор кодека : 2000
    Продолжительность : 1 ч. 43 м.
    Вид битрейта : Постоянный
    Битрейт : 256 Кбит/сек
    Каналы : 6 каналов
    Расположение каналов : Front: L C R, Side: L R, LFE
    Частота : 48, 0 КГц
    Частота кадров : 31, 250 кадров/сек (1536 SPF)
    Битовая глубина : 16 бит
    Метод сжатия : С потерями
    Размер потока : 190 Мбайт (13%)
    Выравнивание : Разделение по промежуткам
    Продолжительность промежутка : 42 мс. (1, 00 видеокадр)
    Время предзагрузки промежутка : 500 мс.
    ServiceKind/String : Complete Main

    Скриншоты для ознакомления



    Все одноименные релизы в Клубе Время раздачи: Круглосуточно до 10 скачавших

    Онлайн видео Углерод



    Углерод/Carbone (2017) BDRip [MVO]
    Рейтинг →
     (голосов: 1, оценка 5/5, голосовать можно 1 раз )

    Другие торренты по теме:

  • Углерод / Carbone (2017) HDRip [MVO] [AD]
  • Углерод / Carbone (2017) BDRip [H.264 / 720p-LQ] [MVO] [AD]
  • Углерод / Carbone (2017) BDRip [H.264 / 1080p] [MVO]
  • Углерод / Carbone (2017) BDRip [1080p] ATV (MVO)
  • Углерод / Carbone (2017) AC3 5.1 [hand made]


    • Комментарии (0):

      Информация

      Информация

        Посетители, находящиеся в группе Гости, не могут оставлять комментарии в данной новости.

        ↓ Меню




        ↓ Опрос

        Вы добавили сайт в закладки?
        Да
        Нет


        Популярное