.
Авторизация | Регистрация

bitok.xyz

» » Углерод / Carbone (2017) BDRip [H.264 / 1080p] [MVO] торрент скачать бесплатно


    Углерод / Carbone (2017) BDRip [H.264 / 1080p] [MVO] торрент скачать бесплатно

    Дата: 16-10-2018, 05:00 | .torrent скачали: 1

    Углерод / Carbone (2017) BDRip [H.264 / 1080p] [MVO]Производство: Франция, Бельгия/Canal+, EuropaCorp
    Жанр: Триллер, Криминал
    Режиссер: Оливье Маршаль

    Актеры
    Бенуа Мажимель, Идир Чендер, Лаура Смет, Микаэль Юн, Дани, Патрик Каталифо, Жерар Депардьё, Мусса Мааскри, Фридерик Эпо

    Описание

    Боясь потерять свой семейный бизнес, обычный парень Антуан Рока придумывает аферу, которая в будущем станет мошенничеством века. Ввязавшись в криминал, он сталкивается с предательством друзей, убийствами и подтасовкой.

    Дата мировой премьеры: 13 октября 2017
    Продолжительность: 01: 43: 46
    Качество видео: BDRip
    Перевод: Многоголосый закадровый, профессиональный (HDRezka Studio )
    Субтитры: Отсутствуют
    Видео: AVC/H.264, 1920x804 (2.40: 1), 24.000 fps, 7 543 Kbps (0.204 bit/pixel)
    Аудио #1: AC-3, 48.0 KHz, 2 ch, 192 Kbps, CBR (Русский)
    Аудио #2: DTS, 48.0 KHz, 6 ch, 1 510 Kbps, CBR (Французский)
    Общее
    Уникальный идентификатор : 248296273446115443500329646911401491908 (0xBACC1F708A0FD51592223B238093FDC4)
    Полное имя : C: UsersUserDownloadsCarbone.2017.x264.BDRip.(1080p).OlLanDGroup.mkv
    Формат : Matroska
    Версия формата : Version 4
    Размер файла : 6, 69 Гбайт
    Продолжительность : 1 ч. 43 м.
    Общий поток : 9236 Кбит/сек
    Название фильма : Углерод.2017.Rip by: ollan
    Дата кодирования : UTC 2018-10-14 20: 27: 36
    Программа кодирования : mkvmerge v6.5.0 (\'Isn\'t she lovely\') built on Oct 20 2013 12: 50: 05
    Библиотека кодирования : libebml v1.3.0 + libmatroska v1.4.1
    Обложка : Yes
    Attachments : Cover - Carbone.png
    Видео
    Идентификатор : 1
    Формат : AVC
    Формат/Информация : Advanced Video Codec
    Профиль формата : High@L4.1
    Настройки формата : CABAC/5 Ref Frames
    Параметр CABAC формата : Да
    Параметр RefFrames формата : 5 кадров
    Идентификатор кодека : V_MPEG4/ISO/AVC
    Продолжительность : 1 ч. 43 м.
    Битрейт : 7543 Кбит/сек
    Ширина : 1920 пикселей
    Высота : 804 пикселя
    Соотношение сторон : 2, 40: 1
    Режим частоты кадров : Постоянный
    Частота кадров : 24, 000 кадра/сек
    Цветовое пространство : YUV
    Субдискретизация насыщенности : 4: 2: 0
    Битовая глубина : 8 бит
    Тип развёртки : Прогрессивная
    Бит/(Пиксели*Кадры) : 0.204
    Размер потока : 5, 33 Гбайт (80%)
    Библиотека кодирования : x264 core 146 r2538 121396c
    Настройки программы : cabac=1/ref=5/deblock=1: -2: -3/analyse=0x3: 0x133/me=umh/subme=11/psy=1/psy_rd=0.90: 0.15/mixed_ref=1/me_range=64/chroma_me=1/trellis=2/8x8dct=1/cqm=0/deadzone=21, 11/fast_pskip=0/chroma_qp_offset=-3/threads=12/lookahead_threads=3/sliced_threads=0/nr=0/decimate=0/interlaced=0/bluray_compat=0/constrained_intra=0/bframes=10/b_pyramid=2/b_adapt=2/b_bias=0/direct=3/weightb=1/open_gop=0/weightp=2/keyint=240/keyint_min=23/scenecut=40/intra_refresh=0/rc_lookahead=40/rc=2pass/mbtree=0/bitrate=7543/ratetol=1.0/qcomp=0.60/qpmin=0/qpmax=69/qpstep=4/cplxblur=20.0/qblur=0.5/vbv_maxrate=50000/vbv_bufsize=62500/nal_hrd=none/filler=0/ip_ratio=1.40/pb_ratio=1.30/aq=1: 1.00
    Язык : French
    Default : Да
    Forced : Нет
    Аудио #1
    Идентификатор : 2
    Формат : AC-3
    Формат/Информация : Audio Coding 3
    Коммерческое название : Dolby Digital
    Идентификатор кодека : A_AC3
    Продолжительность : 1 ч. 43 м.
    Вид битрейта : Постоянный
    Битрейт : 192 Кбит/сек
    Каналы : 2 канала
    Channel layout : L R
    Частота : 48, 0 КГц
    Частота кадров : 31, 250 кадров/сек (1536 SPF)
    Битовая глубина : 16 бит
    Метод сжатия : С потерями
    Размер потока : 143 Мбайт (2%)
    Заголовок : HDRezka Studio
    Язык : Russian
    ServiceKind/String : Complete Main
    Default : Да
    Forced : Нет
    Аудио #2
    Идентификатор : 3
    Формат : DTS
    Формат/Информация : Digital Theater Systems
    Идентификатор кодека : A_DTS
    Продолжительность : 1 ч. 43 м.
    Вид битрейта : Постоянный
    Битрейт : 1509 Кбит/сек
    Каналы : 6 каналов
    Channel layout : C L R Ls Rs LFE
    Частота : 48, 0 КГц
    Частота кадров : 93, 750 кадра/сек (512 SPF)
    Битовая глубина : 24 бит
    Метод сжатия : С потерями
    Размер потока : 1, 09 Гбайт (16%)
    Язык : French
    Default : Нет
    Forced : Нет
    Меню
    00: 00: 00.000 : fr: Chapter 01
    00: 12: 40.415 : fr: Chapter 02
    00: 19: 00.875 : fr: Chapter 03
    00: 26: 20.790 : fr: Chapter 04
    00: 32: 54.250 : fr: Chapter 05
    00: 40: 51.333 : fr: Chapter 06
    00: 49: 00.416 : fr: Chapter 07
    00: 56: 46.125 : fr: Chapter 08
    01: 06: 02.833 : fr: Chapter 09
    01: 15: 08.375 : fr: Chapter 10
    01: 22: 33.957 : fr: Chapter 11
    01: 30: 07.832 : fr: Chapter 12

    Скриншоты для ознакомления



    Все одноименные релизы в Клубе
    Время раздачи: 24/7 (до появления первых 3-5 скачавших)

    Онлайн видео Углерод



    Углерод/Carbone (2017) BDRip [H.264/1080p] [MVO]
    Рейтинг →
     (голосов: 1, оценка 5/5, голосовать можно 1 раз )

    Другие торренты по теме:

  • Углерод / Carbone (2017) HDRip [MVO] [AD]
  • Углерод / Carbone (2017) BDRip [H.264 / 720p-LQ] [MVO] [AD]
  • Углерод / Carbone (2017) BDRip [MVO]
  • Углерод / Carbone (2017) BDRip [1080p] ATV (MVO)
  • Углерод / Carbone (2017) AC3 5.1 [hand made]


    • Комментарии (0):

      Информация

      Информация

        Посетители, находящиеся в группе Гости, не могут оставлять комментарии в данной новости.

        ↓ Меню




        ↓ Опрос

        Вы добавили сайт в закладки?
        Да
        Нет


        Популярное