.
Авторизация | Регистрация

bitok.xyz

» » Останься со мной / Stand by Me (1986) BDRip [H.264 / 1080p-LQ] торрент скачать бесплатно


    Останься со мной / Stand by Me (1986) BDRip [H.264 / 1080p-LQ] торрент скачать бесплатно

    Дата: 24-10-2018, 05:00 | .torrent скачали: 1

    Останься со мной / Stand by Me (1986) BDRip [H.264 / 1080p-LQ]Производство: США/Act III , Act III Communications, Columbia Pictures Corporation, The Body
    Жанр: Драма, Приключения
    Режиссер: Роб Райнер
    Продюсер: Брюс А. Эванс, Рэйнольд Гидеон, Эндрю Шайнмен

    Актеры
    Уил Уитон, Ривер Феникс, Кори Фельдман, Джерри О`Коннелл, Кифер Сазерленд, Кэйси Семашко, Гари Райли, Брэдли Грегг, Джейсон Оливер, Маршалл Белл

    Описание

    Действие фильма переносит зрителя в 50-е годы. Лето подходит к концу, но сезон любимого сериала развлечений омрачен таинственным исчезновением мальчика. Четверо друзей-подростков отправляются на его поиски. Дети взялись за трудное дело, ведь им так хочется поскорее стать старше. Поэтому юные сыщики стараются во всем быть похожими на взрослых, но то, как они ругаются, курят и подражают им, со стороны выглядит очень смешно. И все же в процессе этой шуточной игры ребята осваивают серьезную науку верности и дружбы, которую им суждено пронести через всю жизнь.Экранизация рассказа Стивена Кинга.

    Возраст: 16+ (зрителям, достигшим 16 лет)
    Рейтинг MPAA: R (лицам до 17 лет обязательно присутствие взрослого)
    Релиз от: R.G. Goldenshara
    Продолжительность: 01: 28: 44
    Качество видео: BDRip (1080p-LQ)
    Перевод: Двухголосый закадровый (НТВ)
    Субтитры: Русские, Английские
    Видео: AVC/H.264, 1920x1040 (1.85: 1), ~6604 kbps, 23.976 fps
    Аудио: AC3, 6 ch, 48.0 KHz, 448 kbps
    General
    Unique ID : 221643634926293832574599275889239704147 (0xA6BF02E7C03B5F13B105117CD3CEC253)
    Complete name : E: Мои рипыОстанься со мной.1986.BDRip.1080p.DVO.mkv
    Format : Matroska
    Format version : Version 4/Version 2
    File size : 4.37 GiB
    Duration : 1h 28mn
    Overall bit rate : 7 049 Kbps
    Movie name : Stand.By.Me.1986.1080p.BluRay.REMUX.AVC.DTS-HD.MA.5.1-FGT
    Encoded date : UTC 2018-10-22 19: 33: 57
    Writing application : mkvmerge v6.8.0 (\'Theme for Great Cities\') 32bit built on Mar 2 2014 21: 27: 07
    Writing library : libebml v1.3.0 + libmatroska v1.4.1
    Video
    ID : 1
    Format : AVC
    Format/Info : Advanced Video Codec
    Format profile : High@L4.1
    Format settings, CABAC : Yes
    Format settings, ReFrames : 4 frames
    Codec ID : V_MPEG4/ISO/AVC
    Duration : 1h 28mn
    Bit rate : 6 604 Kbps
    Width : 1 920 pixels
    Height : 1 040 pixels
    Display aspect ratio : 1.85: 1
    Frame rate mode : Constant
    Frame rate : 23.976 fps
    Color space : YUV
    Chroma subsampling : 4: 2: 0
    Bit depth : 8 bits
    Scan type : Progressive
    Bits/(Pixel*Frame) : 0.138
    Stream size : 4.00 GiB (92%)
    Writing library : x264 core 130 r2273 b3065e6
    Encoding settings : cabac=1/ref=4/deblock=1: -3: -3/analyse=0x3: 0x113/me=umh/subme=11/psy=1/psy_rd=1.00: 0.15/mixed_ref=1/me_range=48/chroma_me=1/trellis=2/8x8dct=1/cqm=0/deadzone=21, 11/fast_pskip=0/chroma_qp_offset=-4/threads=6/lookahead_threads=1/sliced_threads=0/nr=0/decimate=0/interlaced=0/bluray_compat=0/constrained_intra=0/bframes=8/b_pyramid=2/b_adapt=2/b_bias=0/direct=2/weightb=1/open_gop=0/weightp=2/keyint=250/keyint_min=23/scenecut=40/intra_refresh=0/rc=2pass/mbtree=0/bitrate=6604/ratetol=1.0/qcomp=0.60/qpmin=0/qpmax=69/qpstep=4/cplxblur=20.0/qblur=0.5/ip_ratio=1.40/pb_ratio=1.30/aq=2: 1.00
    Language : English
    Default : Yes
    Forced : No
    Color primaries : Generic film
    Matrix coefficients : YCgCo
    Audio
    ID : 2
    Format : AC-3
    Format/Info : Audio Coding 3
    Mode extension : CM (complete main)
    Format settings, Endianness : Big
    Codec ID : A_AC3
    Duration : 1h 28mn
    Bit rate mode : Constant
    Bit rate : 448 Kbps
    Channel(s) : 6 channels
    Channel positions : Front: L C R, Side: L R, LFE
    Sampling rate : 48.0 KHz
    Bit depth : 16 bits
    Compression mode : Lossy
    Stream size : 284 MiB (6%)
    Title : DVO НТВ
    Language : Russian
    Default : Yes
    Forced : No
    Text #1
    ID : 3
    Format : UTF-8
    Codec ID : S_TEXT/UTF8
    Codec ID/Info : UTF-8 Plain Text
    Title : Russian
    Language : Russian
    Default : No
    Forced : No
    Text #2
    ID : 4
    Format : UTF-8
    Codec ID : S_TEXT/UTF8
    Codec ID/Info : UTF-8 Plain Text
    Title : English
    Language : English
    Default : No
    Forced : No
    Menu
    00: 00: 00.000 : en: Chapter 01
    00: 06: 29.722 : en: Chapter 02
    00: 14: 10.641 : en: Chapter 03
    00: 16: 56.932 : en: Chapter 04
    00: 24: 40.937 : en: Chapter 05
    00: 31: 52.619 : en: Chapter 06
    00: 36: 31.522 : en: Chapter 07
    00: 42: 05.314 : en: Chapter 08
    00: 52: 43.451 : en: Chapter 09
    00: 59: 29.774 : en: Chapter 10
    01: 03: 13.456 : en: Chapter 11
    01: 07: 36.177 : en: Chapter 12
    01: 09: 55.816 : en: Chapter 13
    01: 14: 19.413 : en: Chapter 14
    01: 19: 13.498 : en: Chapter 15
    01: 22: 19.559 : en: Chapter 16


    Онлайн видео Останься со мной



    Останься со мной/Stand by Me (1986) BDRip [H.264/1080p-LQ]
    Рейтинг →
     (голосов: 1, оценка 4/5, голосовать можно 1 раз )

    Другие торренты по теме:

  • Останься со мной / Stand by Me (1986) BDRip [720p] [25th Anniversary Edition] [VO]
  • Дораэмон: Останься со мной / Stand by Me Doraemon (2014) BDRip 3D [H.264 / 1080p] [Вертикальная анаморфная стереопара] скачать через торрент бесплатно
  • Дораэмон: Останься со мной / Stand by Me Doraemon (2014) BDRip [H.264 / 720p]
  • Дораэмон: Останься со мной / Stand by Me Doraemon (2014) BDRemux 3D [H.264 / 1080p] [ISO]
  • Останься со мной / The Keeping Hours (2017) WEB-DLRip [MVO] [AD]
  • Останься со мной / The Keeping Hours (2017) WEB-DLRip [H.264 / 1080p-LQ] [Line, AD]


    • Комментарии (0):

      Информация

      Информация

        Посетители, находящиеся в группе Гости, не могут оставлять комментарии в данной новости.

        ↓ Меню




        ↓ Опрос

        Вы добавили сайт в закладки?
        Да
        Нет


        Популярное