.
Авторизация | Регистрация

bitok.xyz

» » Доктор Кто / Doctor Who (2018) WEB-DL [H.264 / 1080p-LQ] (сезон 11, серии 1-4 из 12) TVShows (обновляемая) торрент скачать бесплатно


    Доктор Кто / Doctor Who (2018) WEB-DL [H.264 / 1080p-LQ] (сезон 11, серии 1-4 из 12) TVShows (обновляемая) торрент скачать бесплатно

    Дата: 11-11-2018, 05:00 | .torrent скачали: 0

    Доктор Кто / Doctor Who (2018) WEB-DL [H.264 / 1080p-LQ] (сезон 11, серии 1-4 из 12) TVShows (обновляемая)Производство: Великобритания
    Жанр: фантастика, драма, комедия, приключения, семейный
    Режиссер: Джейми Чайлдс

    Актеры
    Джоди Уиттакер, Брэдли Уолш, Тосин Коул, Мандип Гилл, Натали Кузнер и др.

    Описание

    Доктор Кто — британский научно-фантастический телесериал компании BBC о загадочном путешественнике во времени, известном как Доктор. Вместе со своими спутниками он путешествует во времени и пространстве как для спасения целых цивилизаций, так и для собственного удовольствия. Доктор Кто — самый продолжительный научно-фантастический сериал в мире, важная часть массовой культуры Великобритании и многих других стран.

    Возраст: 12+ (зрителям, достигшим 12 лет)
    Продолжительность: ~01: 00: 00 серия
    Качество видео: WEB-DL
    Перевод: Многоголосый закадровый, любительский - TVShows
    Видео: AVC/H.264, 1920x960, ~4637 kbps
    Аудио 1: AC3, 6 ch, 384 kbps - русский, многоголосый закадровый
    Аудио 2: E-AC3, 6 ch, 640 kbps - английский
    Format : Matroska
    Format version : Version 4/Version 2
    File size : 2.50 GiB
    Duration : 1 h 4 min
    Overall bit rate : 5 596 kb/s
    Encoded date : UTC 2018-10-25 10: 35: 38
    Writing application : mkvmerge v24.0.0 (\'Beyond The Pale\') 64-bit
    Writing library : libebml v1.3.6 + libmatroska v1.4.9
    Video
    ID : 1
    Format : AVC
    Format/Info : Advanced Video Codec
    Format profile : High@L4
    Format settings : CABAC/4 Ref Frames
    Format settings, CABAC : Yes
    Format settings, ReFrames : 4 frames
    Codec ID : V_MPEG4/ISO/AVC
    Duration : 1 h 3 min
    Bit rate : 4 637 kb/s
    Width : 1 920 pixels
    Height : 960 pixels
    Display aspect ratio : 2.000
    Frame rate mode : Constant
    Frame rate : 25.000 FPS
    Color space : YUV
    Chroma subsampling : 4: 2: 0
    Bit depth : 8 bits
    Scan type : Progressive
    Bits/(Pixel*Frame) : 0.101
    Stream size : 2.05 GiB (82%)
    Default : Yes
    Forced : No
    Color range : Limited
    Color primaries : BT.709
    Transfer characteristics : BT.709
    Matrix coefficients : BT.709
    Audio #1
    ID : 2
    Format : AC-3
    Format/Info : Audio Coding 3
    Codec ID : A_AC3
    Duration : 1 h 4 min
    Bit rate mode : Constant
    Bit rate : 384 kb/s
    Channel(s) : 6 channels
    Channel positions : Front: L C R, Side: L R, LFE
    Sampling rate : 48.0 kHz
    Frame rate : 31.250 FPS (1536 SPF)
    Bit depth : 16 bits
    Compression mode : Lossy
    Stream size : 176 MiB (7%)
    Title : TVShows
    Language : Russian
    Service kind : Complete Main
    Default : Yes
    Forced : No
    Audio #2
    ID : 3
    Format : E-AC-3
    Format/Info : Enhanced Audio Coding 3
    Codec ID : A_EAC3
    Duration : 1 h 3 min
    Bit rate mode : Constant
    Bit rate : 640 kb/s
    Channel(s) : 6 channels
    Channel positions : Front: L C R, Side: L R, LFE
    Sampling rate : 48.0 kHz
    Frame rate : 187.500 FPS (256 SPF)
    Compression mode : Lossy
    Stream size : 289 MiB (11%)
    Title : Original
    Language : English
    Service kind : Complete Main
    Default : No
    Forced : No


    Онлайн видео Доктор Кто



    Доктор Кто/Doctor Who (2018) WEB-DL [H.264/1080p-LQ] (сезон 11, серии 1-4 из 12) TVShows (обновляемая)
    Рейтинг →
     (голосов: 1, оценка 3/5, голосовать можно 1 раз )

    Другие торренты по теме:

  • Доктор Кто. Возвращение Доктора Мистерио / Doctor Who. The Return of Doctor Mysterio (2016) WEB-DL [H.264 / 1080p-LQ] (сезон 10, серия 0) BaibaKo
  • Доктор Кто / Doctor Who (2014) WEB-DL [H.264 / 720p-LQ] (Сезон 8, серии 1-6 из 12) (BaibaKo) (обновляемая) скачать через торрент бесплатно
  • Доктор Кто / Doctor Who (2014) WEB-DLRip (Сезон 8, серии 1-6 из 12) (BaibaKo) (обновляемая) скачать через торрент бесплатно
  • Доктор Блейк / The Doctor Blake Mysteries (2014) WEB-DLRip (Сезон 2 / Серии 1-4 из 10) DreamRecords (обновляемая) скачать через торрент бесплатно
  • Доктор Кто / Doctor Who (2014) BDRip [H.264 / 1080р-LQ] (сезон 8, серии 0 - 13 из 13) (BaibaKo) скачать через торрент бесплатно
  • Доверьтесь мне, я доктор (фильм 1) / Trust Me, Im A Doctor (2013) IPTVRip скачать через торрент бесплатно
  • Доктор в ловушке / Doctor in Trouble (1970) DVDRip [H.264] скачать через торрент бесплатно
  • Доктор и его медсестры / Doctor in Clover (1966) DVDRip [H.264] скачать через торрент бесплатно


    • Комментарии (0):

      Информация

      Информация

        Посетители, находящиеся в группе Гости, не могут оставлять комментарии в данной новости.

        ↓ Меню




        ↓ Опрос

        Вы добавили сайт в закладки?
        Да
        Нет


        Популярное