.
Авторизация | Регистрация
bitok.xyz
Торрент скачать бесплатно Фильмы торрент скачать На том стоим / Hard Ground (2003) DVDRip [H.264] торрент скачать бесплатно


    На том стоим / Hard Ground (2003) DVDRip [H.264] торрент скачать бесплатно

    Дата: 13-11-2018, 05:00 | .torrent скачали: 4

    На том стоим / Hard Ground (2003) DVDRip [H.264]Производство: США/Alpine Medien Productions, Hallmark Entertainment, Larry Levinson Productions, MAT IV
    Жанр: Приключения, Вестерн
    Режиссер: Фрэнк К. Доббс
    Продюсер: Линкольн Лагесон, Рэнди Поуп, Х. Дэниэл Гросс

    Актеры
    Берт Рейнолдс, Брюс Дерн, Эми Джо Джонсон, Сет Петерсон, Дэвид Фильоли, Мартин Коув, Ларри Хэнкин, Майкл Шамус Уайлз, Билл Хендерсон, Серхио Кальдерон

    Описание

    Легендарный охотник за головами Джон МакКей по несправедливому обвинению в убийстве 11 лет просидел в знаменитой тюрьме Юма, хотя большинство здешних заключенных не переживают и меньшего срока. Когда злобный садист и убийца Баклин бежал из тюрьмы, расправившись с охраной и другими заключенными, чудом уцелевшему МакКею пришлось помогать шерифу Хатчинсону — человеку, который его и посадил.
    Но Хатчинсон вовлек в погоню за Баклином и его бандой десперадос, оставляющими на пути к мексиканской границе все новые трупы, сына МакКея — Джошуа. МакКей ставит Хатчинсону только два условия: его сын не должен погибнуть, а сам он не должен вернуться в тюрьму…

    Возраст: 16+ (зрителям, достигшим 16 лет)
    Релиз от: Охрана (NNMCLUB)
    Продолжительность: 01: 24: 17
    Качество видео: DVDRip
    Перевод: Двухголосый закадровый (EA Cinema)
    Субтитры: Отсутствуют
    Видео: AVC/H.264, 720x544, ~1944 Kbps
    Аудио 1: AC3, 2 ch, 192 Kbps, 48.0 kHz – Русский
    Аудио 2: AC3, 2 ch, 192 Kbps, 48.0 kHz – Английский
    Общее
    Уникальный идентификатор : 222065111690781670751291325458951573761 (0xA7102F506C1D4A208757CEF410F21101)
    Полное имя : B: DownloadsНа том стоим. 2003. NNMCLUB.mkv
    Формат : Matroska
    Версия формата : Version 4/Version 2
    Размер файла : 1, 37 Гбайт
    Продолжительность : 1 ч. 24 м.
    Общий поток : 2330 Кбит/сек
    Дата кодирования : UTC 2018-11-11 11: 00: 12
    Программа кодирования : mkvmerge v7.9.0 (\'Birds\') 64bit
    Библиотека кодирования : libebml v1.3.1 + libmatroska v1.4.2
    Видео
    Идентификатор : 1
    Формат : AVC
    Формат/Информация : Advanced Video Codec
    Профиль формата : High@L4.1
    Настройки формата : CABAC/12 Ref Frames
    Параметр CABAC формата : Да
    Параметр RefFrames формата : 12 кадров
    Идентификатор кодека : V_MPEG4/ISO/AVC
    Продолжительность : 1 ч. 24 м.
    Битрейт : 1944 Кбит/сек
    Ширина : 720 пикселей
    Высота : 544 пикселя
    Соотношение сторон : 4: 3
    Режим частоты кадров : Постоянный
    Частота кадров : 25, 000 кадров/сек
    Цветовое пространство : YUV
    Субдискретизация насыщенности : 4: 2: 0
    Битовая глубина : 8 бит
    Тип развёртки : Прогрессивная
    Бит/(Пиксели*Кадры) : 0.199
    Размер потока : 1, 14 Гбайт (83%)
    Заголовок : Hard Ground
    Библиотека кодирования : x264 core 146 r2538 121396c
    Настройки программы : cabac=1/ref=12/deblock=1: -1: -1/analyse=0x3: 0x113/me=umh/subme=10/psy=1/psy_rd=1.00: 0.10/mixed_ref=1/me_range=32/chroma_me=1/trellis=2/8x8dct=1/cqm=0/deadzone=21, 11/fast_pskip=0/chroma_qp_offset=-3/threads=6/lookahead_threads=1/sliced_threads=0/nr=0/decimate=0/interlaced=0/bluray_compat=0/constrained_intra=0/bframes=7/b_pyramid=2/b_adapt=2/b_bias=0/direct=3/weightb=1/open_gop=0/weightp=2/keyint=250/keyint_min=25/scenecut=40/intra_refresh=0/rc_lookahead=60/rc=2pass/mbtree=1/bitrate=1944/ratetol=1.0/qcomp=0.60/qpmin=0/qpmax=69/qpstep=4/cplxblur=20.0/qblur=0.5/vbv_maxrate=14000/vbv_bufsize=14000/nal_hrd=none/filler=0/ip_ratio=1.40/aq=1: 1.00
    Язык : English
    Default : Да
    Forced : Нет
    Аудио #1
    Идентификатор : 2
    Формат : AC-3
    Формат/Информация : Audio Coding 3
    Идентификатор кодека : A_AC3
    Продолжительность : 1 ч. 24 м.
    Вид битрейта : Постоянный
    Битрейт : 192 Кбит/сек
    Каналы : 2 канала
    Расположение каналов : Front: L R
    Частота : 48, 0 КГц
    Частота кадров : 31, 250 кадров/сек (1536 SPF)
    Битовая глубина : 16 бит
    Метод сжатия : С потерями
    Размер потока : 116 Мбайт (8%)
    Заголовок : Двухголосый закадровый
    Язык : Russian
    ServiceKind/String : Complete Main
    Default : Да
    Forced : Нет
    Аудио #2
    Идентификатор : 3
    Формат : AC-3
    Формат/Информация : Audio Coding 3
    Идентификатор кодека : A_AC3
    Продолжительность : 1 ч. 24 м.
    Вид битрейта : Постоянный
    Битрейт : 192 Кбит/сек
    Каналы : 2 канала
    Расположение каналов : Front: L R
    Частота : 48, 0 КГц
    Частота кадров : 31, 250 кадров/сек (1536 SPF)
    Битовая глубина : 16 бит
    Метод сжатия : С потерями
    Размер потока : 116 Мбайт (8%)
    Заголовок : Оригинал
    Язык : English
    ServiceKind/String : Complete Main
    Default : Нет
    Forced : Нет

    Скриншоты для ознакомления




    Все одноименные релизы в Клубе
    Время раздачи: с 13: 00 до 01: 00 МСК, выходные круглосуточно (до появления первых 3-5 скачавших)

    Онлайн видео На том стоим


    На том стоим / Hard Ground (2003) DVDRip [H.264] торрент скачать бесплатно
    Рейтинг →
     (голосов: 1, оценка 3/5, голосовать можно 1 раз )

    Другие торренты по теме:



      Комментарии (0):

      Информация

      Информация

        Посетители, находящиеся в группе Гости, не могут оставлять комментарии в данной новости.

        ↓ Меню




        ↓ Опрос

        Вы добавили сайт в закладки?
        Да
        Нет


        Популярное