.
Авторизация | Регистрация

bitok.xyz

» » Веном / Venom (2018) WEBRip [H.264 / 1080p] [UKR, EN / En Sub] торрент скачать бесплатно


    Веном / Venom (2018) WEBRip [H.264 / 1080p] [UKR, EN / En Sub] торрент скачать бесплатно

    Дата: 30-11-2018, 05:00 | .torrent скачали: 6

    Веном / Venom (2018) WEBRip [H.264 / 1080p] [UKR, EN / En Sub]Производство: США, Columbia Pictures Corporation, Marvel Entertainment, Sony Pictures Entertainment
    Жанр: Боевик, Фантастика, Триллер, Ужасы
    Режиссер: Рубен Фляйшер
    Продюсер: Ави Арад, Чэнь Хунвэй, Эдвард Чэн

    Актеры
    Том Харди, Мишель Уильямс, Марчелла Браджио, Вуди Харрельсон, Дженни Слейт, Риз Ахмед, Мак Брандт, Рон Сепас Джонс, Мишель Ли, Мелора Уолтерс

    Описание

    Что если в один прекрасный день в тебя вселяется существо-симбиот, которое наделяет тебя сверхчеловеческими способностями? Вот только Веном — симбиот совсем недобрый, и договориться с ним невозможно. Хотя нужно ли договариваться?.. Ведь в какой-то момент ты понимаешь, что быть плохим вовсе не так уж и плохо. Так даже веселее. В мире и так слишком много супергероев! Мы — Веном!

    Возраст: 16+ (зрителям, достигшим 16 лет)
    Рейтинг MPAA: PG-13 (детям до 13 лет просмотр нежелателен)
    Продолжительность: 01: 47: 10
    Качество видео: WEBRip
    Перевод: Отсутствует
    Язык озвучки : Украинский дубляж (студия LeDoyen), английский (оригинал)
    Субтитры: Английские
    Видео: AVC/H.264, 1920x800, ~15, 1 Mbps
    Аудио 1 : AC3, 2 ch, 192 Kbps | Украинский дубляж (LeDoyen)
    Аудио 2 : AC3, 2 ch, 192 Kbps | English (оригинал)Общее
    Уникальный идентификатор : 211777451559556365558776825708147736864 (0x9F52DA824860FB0482C07DE3ECA18120)
    Полное имя : Venom.2018.1080p.WEBRip.Ukr.Eng.mkv
    Формат : Matroska
    Версия формата : Version 4/Version 2
    Размер файла : 11, 6 Гбайт
    Продолжительность : 1 ч. 47 м.
    Общий поток : 15, 5 Мбит/сек
    Дата кодирования : UTC 2018-11-29 17: 56: 32
    Программа кодирования : mkvmerge v8.3.0 (\'Over the Horizon\') 64bit
    Библиотека кодирования : libebml v1.3.1 + libmatroska v1.4.2
    Видео
    Идентификатор : 1
    Формат : AVC
    Формат/Информация : Advanced Video Codec
    Профиль формата : High@L4.1
    Настройки формата : CABAC/4 Ref Frames
    Параметр CABAC формата : Да
    Параметр RefFrames формата : 4 кадра
    Идентификатор кодека : V_MPEG4/ISO/AVC
    Продолжительность : 1 ч. 47 м.
    Битрейт : 15, 1 Мбит/сек
    Номинальный битрейт : 16, 0 Мбит/сек
    Ширина : 1920 пикселей
    Высота : 800 пикселей
    Соотношение сторон : 2, 40: 1
    Режим частоты кадров : Постоянный
    Частота кадров : 23, 976 (24000/1001) кадра/сек
    Цветовое пространство : YUV
    Субдискретизация насыщенности : 4: 2: 0
    Битовая глубина : 8 бит
    Тип развёртки : Прогрессивная
    Бит/(Пиксели*Кадры) : 0.411
    Размер потока : 11, 3 Гбайт (98%)
    Библиотека кодирования : x264 core 142 r2479 dd79a61
    Настройки программы : cabac=1/ref=1/deblock=1: 0: 0/analyse=0x3: 0x113/me=hex/subme=2/psy=1/psy_rd=1.00: 0.00/mixed_ref=0/me_range=16/chroma_me=1/trellis=0/8x8dct=1/cqm=0/deadzone=21, 11/fast_pskip=1/chroma_qp_offset=0/threads=18/lookahead_threads=6/sliced_threads=0/nr=0/decimate=1/interlaced=0/bluray_compat=0/constrained_intra=0/bframes=3/b_pyramid=2/b_adapt=1/b_bias=0/direct=1/weightb=1/open_gop=0/weightp=1/keyint=240/keyint_min=24/scenecut=40/intra_refresh=0/rc_lookahead=10/rc=abr/mbtree=1/bitrate=16000/ratetol=1.0/qcomp=0.60/qpmin=0/qpmax=69/qpstep=4/vbv_maxrate=62500/vbv_bufsize=78125/nal_hrd=none/filler=0/ip_ratio=1.40/aq=1: 1.00
    Default : Да
    Forced : Нет
    Цветовой диапазон : Limited
    Основные цвета : BT.709
    Характеристики трансфера : BT.709
    Коэффициенты матрицы : BT.709
    Аудио #1
    Идентификатор : 2
    Формат : AC-3
    Формат/Информация : Audio Coding 3
    Идентификатор кодека : A_AC3
    Продолжительность : 1 ч. 47 м.
    Вид битрейта : Постоянный
    Битрейт : 192 Кбит/сек
    Каналы : 2 канала
    Расположение каналов : Front: L R
    Частота : 48, 0 КГц
    Частота кадров : 31, 250 кадров/сек (1536 SPF)
    Битовая глубина : 16 бит
    Метод сжатия : С потерями
    Размер потока : 147 Мбайт (1%)
    Язык : Ukrainian
    ServiceKind/String : Complete Main
    Default : Да
    Forced : Нет
    Аудио #2
    Идентификатор : 3
    Формат : AC-3
    Формат/Информация : Audio Coding 3
    Идентификатор кодека : A_AC3
    Продолжительность : 1 ч. 47 м.
    Вид битрейта : Постоянный
    Битрейт : 192 Кбит/сек
    Каналы : 2 канала
    Расположение каналов : Front: L R
    Частота : 48, 0 КГц
    Частота кадров : 31, 250 кадров/сек (1536 SPF)
    Битовая глубина : 16 бит
    Метод сжатия : С потерями
    Размер потока : 147 Мбайт (1%)
    Язык : English
    ServiceKind/String : Complete Main
    Default : Нет
    Forced : Нет
    Текст
    Идентификатор : 4
    Формат : UTF-8
    Идентификатор кодека : S_TEXT/UTF8
    Идентификатор кодека/Информация : UTF-8 Plain Text
    Продолжительность : 1 ч. 34 м.
    Битрейт : 63 бит/сек
    ElementCount : 1360
    Размер потока : 44, 4 Кбайт (0%)
    Язык : English
    Default : Нет
    Forced : Нет
    Скриншоты для ознакомления



    Все одноименные релизы в Клубе
    Время раздачи: Пн-Пт с 18: 00 до 23: 00 (до появления первых 3-5 скачавших)

    Онлайн видео Веном



    Веном/Venom (2018) WEBRip [H.264/1080p] [UKR, EN/En Sub]
    Рейтинг →
     (голосов: 1, оценка 4/5, голосовать можно 1 раз )

    Другие торренты по теме:

  • Веном / Venom (2018) Blu-ray [H.264 / 1080p] [EUR]
  • Веном / Venom (2018) TS [H.264 / 720p-LQ] [AD]
  • Веном / Venom (2018) TC [H.264 / 720p-LQ] [Звук с CamRip, AD]
  • Веном / Venom (2018) TC [MVO, AD]
  • Веном / Venom (2018) WEBRip [MVO] [AD]
  • Веном / Venom (2018) WEBRip [H.264 / 720p-LQ] [MVO] [AD]
  • Веном / Venom (2018) WEBRip [H.264 / 1080p-LQ] [MVO, AD]
  • Веном / Venom (2018) WEBRip [H.264 / 1080p] [EN , EN Sub]


    • Комментарии (0):

      Информация

      Информация

        Посетители, находящиеся в группе Гости, не могут оставлять комментарии в данной новости.

        ↓ Меню




        ↓ Опрос

        Вы добавили сайт в закладки?
        Да
        Нет


        Популярное