.
Авторизация | Регистрация

bitok.xyz

» » Нечего терять / TBS / Nothing to Lose (2008) BDRip [MVO] торрент скачать бесплатно


    Нечего терять / TBS / Nothing to Lose (2008) BDRip [MVO] торрент скачать бесплатно

    Дата: 3-12-2018, 05:00 | .torrent скачали: 1

    Нечего терять / TBS / Nothing to Lose (2008) BDRip [MVO]Производство: Нидерланды/BNN TV, Pupkin Film
    Жанр: Триллер, Криминал
    Режиссер: Питер Койперс

    Актеры
    Тео Маассен, Лиза Смит, Боб Шварце, Риа Маркс, Карст Вудстра, Флип Фильц, Романа Вреде, Мартин Де Рийк, Менно Ван Бекум, Рус Оуихэнд, Кевин Ллевелин, Бинг Вирсма, Петер ван Бокорст, Йейл Сэкман, Пим Ламбо, Мике Меийер, Саша Бултхёйс, Йобст Шниббе, Питер Эмбрехтс, Йорен Селдеслахтс, Стеф Артс

    Описание

    Йохана обвиняют в убийстве отца и сестры. Пожалуй, он единственный, кто убежден в своей невиновности. Чтобы доказать это окружающим и найти конкретные тому подтверждения, герой сбегает из тюремной клиники. Только его мать может дать показания в пользу Йохана, и он до последнего надеется, что она расскажет в суде правду: парень не убивал свою сестру, а когда отец стал издеваться над ней, Йохану пришлось его убить. Однако мать героя почему-то дает ложные показания и всячески избегает встречи с ним. Чтобы не попасть в руки полиции, Йохан берет в заложники 13-летнюю Тессу и устремляемся в бега...

    Продолжительность: 02: 12: 11
    Качество видео: BDRip
    Перевод: Профессиональный (многоголосый закадровый) - СВ Студия
    Видео: Xvid, 720x384, ~2384 Kbps
    Аудио 01 : AC3, 6 ch, 448 kb/s - Русский
    Аудио 02 : AC3, 6 ch, 448 kb/s - Голландский
    Общее
    Полное имя : TBS.2008.BDRip.avi
    Формат : AVI
    Формат/Информация : Audio Video Interleave
    Профиль формата : OpenDML
    Размер файла : 2, 07 Гбайт
    Продолжительность : 1 ч. 29 м.
    Общий поток : 3299 Kbps
    Программа кодирования : VirtualDubMod 1.5.10.3 |www.virtualdub-fr.org|| (build 2550/release)
    Библиотека кодирования : VirtualDubMod build 2550/release
    Видео
    Идентификатор : 0
    Формат : MPEG-4 Visual
    Профиль формата : Advanced Simple@L5
    Настройки формата : BVOP1
    Параметр BVOP формата : 1
    Параметр QPel формата : Нет
    Параметр GMC формата : Без точки перехода
    Параметр матрицы формата : Default (MPEG)
    Идентификатор кодека : XVID
    Идентификатор кодека/Подсказка : XviD
    Продолжительность : 1 ч. 29 м.
    Битрейт : 2384 Kbps
    Ширина : 720 пикселей
    Высота : 384 пикселя
    Соотношение сторон : 1, 85: 1
    Частота кадров : 23, 976 (24000/1001) кадра/сек
    Цветовое пространство : YUV
    Субдискретизация насыщенности : 4: 2: 0
    Битовая глубина : 8 бит
    Тип развёртки : Прогрессивная
    Метод сжатия : С потерями
    Бит/(Пиксели*Кадры) : 0.360
    Размер потока : 1, 50 Гбайт (72%)
    Библиотека кодирования : XviD 67
    Аудио #1
    Идентификатор : 1
    Формат : AC-3
    Формат/Информация : Audio Coding 3
    Коммерческое название : Dolby Digital
    Идентификатор кодека : 2000
    Продолжительность : 1 ч. 29 м.
    Вид битрейта : Постоянный
    Битрейт : 448 Kbps
    Каналы : 6 каналов
    Channel layout : L R C LFE Ls Rs
    Частота : 48, 0 КГц
    Частота кадров : 31, 250 кадров/сек (1536 SPF)
    Битовая глубина : 16 бит
    Метод сжатия : С потерями
    Размер потока : 288 Мбайт (14%)
    Выравнивание : Разделение по промежуткам
    Продолжительность промежутка : 42 мс. (1, 00 видеокадр)
    Время предзагрузки промежутка : 500 мс.
    Заголовок : RUS
    ServiceKind/String : Complete Main
    Аудио #2
    Идентификатор : 2
    Формат : AC-3
    Формат/Информация : Audio Coding 3
    Коммерческое название : Dolby Digital
    Идентификатор кодека : 2000
    Продолжительность : 1 ч. 29 м.
    Вид битрейта : Постоянный
    Битрейт : 448 Kbps
    Каналы : 6 каналов
    Channel layout : L R C LFE Ls Rs
    Частота : 48, 0 КГц
    Частота кадров : 31, 250 кадров/сек (1536 SPF)
    Битовая глубина : 16 бит
    Метод сжатия : С потерями
    Размер потока : 288 Мбайт (14%)
    Выравнивание : Разделение по промежуткам
    Продолжительность промежутка : 42 мс. (1, 00 видеокадр)
    Время предзагрузки промежутка : 500 мс.
    Заголовок : DUT
    ServiceKind/String : Complete Main

    Скриншоты для ознакомления




    Все одноименные релизы в Клубе
    Время раздачи: по возможности (до появления первых 3-5 скачавших)

    Онлайн видео Нечего терять



    Нечего терять/TBS/Nothing to Lose (2008) BDRip [MVO]
    Рейтинг →
     (голосов: 1, оценка 5/5, голосовать можно 1 раз )

    Другие торренты по теме:

  • Нечего терять / Nothing to Lose (1997) HDTVRip скачать через торрент бесплатно
  • Alternativa / Альтернатива: Нечего терять (2011) [Ru] (1.7.5.808) Repack R.G. Catalyst
  • Нечего терять / Nothing to Lose (1997) WEB-DL [H.264 / 1080p]
  • Нечего терять / Nothing to Lose (1997) WEB-DLRip [H.264]
  • Нечего терять / TBS / Nothing to Lose (2008) BDRemux [H.264 / 1080p]
  • Нечего терять / Nothing to Lose (1997) WEB-DLRip [H.264 / 720p]
  • Нам терять нечего / Nichts zu verlieren (2018) HDTVRip [MVO] [AD]
  • Нам терять нечего / Nichts zu verlieren (2018) HDTVRip [H.264 / 720p-LQ] [MVO] [AD]


    • Комментарии (0):

      Информация

      Информация

        Посетители, находящиеся в группе Гости, не могут оставлять комментарии в данной новости.

        ↓ Меню




        ↓ Опрос

        Вы добавили сайт в закладки?
        Да
        Нет


        Популярное