.
Авторизация | Регистрация
bitok.xyz
» » Хантер Киллер / Hunter Killer (2018) WEBRip [Звук с TS] [AD] торрент скачать бесплатно


    Хантер Киллер / Hunter Killer (2018) WEBRip [Звук с TS] [AD] торрент скачать бесплатно

    Дата: 15-12-2018, 05:00 | .torrent скачали: 1

    Хантер Киллер / Hunter Killer (2018) WEBRip [Звук с TS] [AD]Производство: США/Hunter Killer Productions, G-BASE, Hishow Entertainment
    Жанр: Боевик, триллер
    Режиссер: Донован Марш

    Актеры
    Джерард Батлер, Гэри Олдман, Этан Бейрд, Джейкоб Скипио, Демпси Бовелл, Кори Джонсон, Адам Джеймс, Коммон, Генри Гудман, Колин Стинтон

    Описание

    Американская атакующая субмарина Хантер Киллер вместе с подразделением Военно-Морских сил США вступает в крайне рискованную боевую авантюру. Когда время на исходе и каждая минута на счету, элитной команде придется совершить невозможное, чтобы предотвратить конфликт мирового масштаба.

    Возраст: 18+ (зрителям, достигшим 18 лет. запрещено для детей)
    Рейтинг MPAA: R (лицам до 17 лет обязательно присутствие взрослого)
    Дата мировой премьеры: 19 октября 2018
    Дата премьеры в России: 8 ноября 2018

    Продолжительность: 02: 00: 28
    Качество видео: WEBRip
    Перевод: Дублированный звук с TS
    Субтитры: Корейские (хардсаб)
    Реклама: Присутствуют вставки текстовой рекламы
    Видео: XviD, 720x304, ~1377 Kbps
    Аудио: AC-3, 2 ch, 192 Kbps
    Общее
    Полное имя : E: NNMХантер КиллерHunter Killer 2018 WEBRip.avi
    Формат : AVI
    Формат/Информация : Audio Video Interleave
    Профиль формата : OpenDML
    Размер файла : 1, 33 Гбайт
    Продолжительность : 2 ч. 0 м.
    Общий поток : 1582 Кбит/сек
    Видео
    Идентификатор : 0
    Формат : MPEG-4 Visual
    Профиль формата : Advanced Simple@L5
    Настройки формата : BVOP2
    Параметр BVOP формата : 2
    Параметр QPel формата : Нет
    Параметр GMC формата : Без точки перехода
    Параметр матрицы формата : Default (H.263)
    Идентификатор кодека : XVID
    Идентификатор кодека/Подсказка : XviD
    Продолжительность : 2 ч. 0 м.
    Битрейт : 1377 Кбит/сек
    Ширина : 720 пикселей
    Высота : 304 пикселя
    Соотношение сторон : 2, 35: 1
    Частота кадров : 23, 976 (24000/1001) кадра/сек
    Цветовое пространство : YUV
    Субдискретизация насыщенности : 4: 2: 0
    Битовая глубина : bit0
    Тип развёртки : Прогрессивная
    Метод сжатия : С потерями
    Бит/(Пиксели*Кадры) : 0.262
    Размер потока : 1, 16 Гбайт (87%)
    Библиотека кодирования : XviD 1.2.1 (UTC 2008-12-04)
    Аудио
    Идентификатор : 1
    Формат : AC-3
    Формат/Информация : Audio Coding 3
    Идентификатор кодека : 2000
    Продолжительность : 2 ч. 0 м.
    Вид битрейта : Постоянный
    Битрейт : 192 Кбит/сек
    Каналы : 2 канала
    Расположение каналов : Front: L R
    Частота : 48, 0 КГц
    Частота кадров : 31, 250 кадров/сек (1536 SPF)
    Битовая глубина : 16 бит
    Метод сжатия : С потерями
    Размер потока : 165 Мбайт (12%)
    Выравнивание : Соединение по промежуткам
    Продолжительность промежутка : 32 мс. (0, 77 видеокадр)
    ServiceKind/String : Complete Main

    Скриншоты для ознакомления



    Все одноименные релизы в Клубе Время раздачи: 24/7 (до появления первых 3-5 скачавших)

    Онлайн видео Хантер Киллер



    Хантер Киллер/Hunter Killer (2018) WEBRip [Звук с TS] [AD]
    Рейтинг →
     (голосов: 1, оценка 3/5, голосовать можно 1 раз )

    Другие торренты по теме:

  • Хантер Киллер / Hunter Killer (2018) TS [MVO] [AD]
  • Хантер Киллер / Hunter Killer (2018) WEBRip [EN / Kor Sub]
  • Хантер Киллер / Hunter Killer (2018) WEBRip [H.264 / 1080p-LQ] [EN / Kor Sub]
  • Хантер Киллер / Hunter Killer (2018) WEBRip [MVO] [AD]
  • Хантер Киллер / Hunter Killer (2018) WEBRip [H.264 / 720p-LQ] [Line, AD]
  • Хантер Киллер / Hunter Killer (2018) WEBRip [MVO]
  • Хантер Киллер / Hunter Killer (2018) WEBRip [H.264 / 1080p-LQ] [MVO]
  • Хантер Киллер / Hunter Killer (2018) WEB-DLRip


    • Комментарии (0):

      Информация

      Информация

        Посетители, находящиеся в группе Гости, не могут оставлять комментарии в данной новости.

        ↓ Меню




        ↓ Опрос

        Вы добавили сайт в закладки?
        Да
        Нет


        Популярное