.
Авторизация | Регистрация

bitok.xyz

» » Хантер Киллер / Hunter Killer (2018) WEBRip [H.264 / 1080p-LQ] [EN / Kor Sub] торрент скачать бесплатно


    Хантер Киллер / Hunter Killer (2018) WEBRip [H.264 / 1080p-LQ] [EN / Kor Sub] торрент скачать бесплатно

    Дата: 17-12-2018, 05:00 | .torrent скачали: 4

    Хантер Киллер / Hunter Killer (2018) WEBRip [H.264 / 1080p-LQ] [EN / Kor Sub]Производство: США, Millennium Films, Hishow Entertainment
    Жанр: Боевик, Триллер
    Режиссер: Донован Марш
    Продюсер: Джерард Батлер, Марк Гилл, Тоби Джаффе

    Актеры
    Джерард Батлер, Гари Олдман, Коммон, Зейн Холц, Микаэл Нюквист, Тоби Стивенс, Линда Карделлини, Этан Бейрд, Джейкоб Скипио, Демпси Бовелл

    Описание

    Американская атомная подлодка Хантер Киллер вместе с подразделением военно-морских сил США вступает в крайне рискованную боевую авантюру по спасению мира от катастрофы. Когда время на исходе и каждая минута на счету, элитной команде придется совершить невозможное, чтобы предотвратить конфликт мирового масштаба.

    Возраст: 18+ (зрителям, достигшим 18 лет. запрещено для детей)
    Рейтинг MPAA: NC-17 (лицам до 17 лет просмотр запрещен)
    Продолжительность: 02: 00: 54
    Качество видео: WEBRip
    Перевод: Отсутствует
    Язык озвучки : английский (оригинал)
    Субтитры: Корейские (вшитые, не отключаемые)
    Видео: AVC/H.264, 1912x800, ~6500 Kbps
    Аудио: AAC, 2 ch, 256 KbpsОбщее
    Полное имя : Hunter.Killer.2018.1080p.KORSUB.HDRip.x264.AAC2.0-STUTTERSHIT.mp4
    Формат : MPEG-4
    Профиль формата : Base Media
    Идентификатор кодека : isom (isom/iso2/avc1/mp41)
    Размер файла : 5, 52 Гбайт
    Продолжительность : 2 ч. 0 м.
    Общий поток : 6531 Кбит/сек
    Название фильма : Hunter.Killer.2018.1080p.KORSUB.HDRip.x264.AAC2.0-STUTTERSHIT
    Программа кодирования : Lavf58.0.101
    Примечание : Hunter.Killer.2018.1080p.KORSUB.HDRip.x264.AAC2.0-STUTTERSHIT
    Видео
    Идентификатор : 1
    Формат : AVC
    Формат/Информация : Advanced Video Codec
    Профиль формата : High@L4.1
    Настройки формата : CABAC/4 Ref Frames
    Параметр CABAC формата : Да
    Параметр RefFrames формата : 4 кадра
    Идентификатор кодека : avc1
    Идентификатор кодека/Информация : Advanced Video Coding
    Продолжительность : 2 ч. 0 м.
    Битрейт : 6500 Кбит/сек
    Ширина : 1920 пикселей
    Высота : 800 пикселей
    Соотношение сторон : 2, 40: 1
    Режим частоты кадров : Постоянный
    Частота кадров : 25, 000 кадров/сек
    Цветовое пространство : YUV
    Субдискретизация насыщенности : 4: 2: 0
    Битовая глубина : 8 бит
    Тип развёртки : Прогрессивная
    Бит/(Пиксели*Кадры) : 0.169
    Размер потока : 5, 29 Гбайт (96%)
    Заголовок : Hunter.Killer.2018.1080p.KORSUB.HDRip.x264.AAC2.0-STUTTERSHIT
    Библиотека кодирования : x264 core 148 r2795M aaa9aa8
    Настройки программы : cabac=1/ref=4/deblock=1: 0: 0/analyse=0x3: 0x113/me=umh/subme=9/psy=1/psy_rd=1.00: 0.00/mixed_ref=1/me_range=16/chroma_me=1/trellis=2/8x8dct=1/cqm=0/deadzone=21, 11/fast_pskip=1/chroma_qp_offset=-2/threads=72/lookahead_threads=6/sliced_threads=0/nr=0/decimate=1/interlaced=0/bluray_compat=0/constrained_intra=0/bframes=3/b_pyramid=2/b_adapt=2/b_bias=0/direct=3/weightb=1/open_gop=0/weightp=2/keyint=250/keyint_min=25/scenecut=40/intra_refresh=0/rc_lookahead=50/rc=abr/mbtree=1/bitrate=6500/ratetol=1.0/qcomp=0.60/qpmin=0/qpmax=69/qpstep=4/ip_ratio=1.40/aq=1: 1.00
    Codec configuration box : avcC
    Аудио
    Идентификатор : 2
    Формат : AAC LC
    Формат/Информация : Advanced Audio Codec Low Complexity
    Идентификатор кодека : mp4a-40-2
    Продолжительность : 2 ч. 0 м.
    Вид битрейта : Постоянный
    Битрейт : 256 Кбит/сек
    Каналы : 2 канала
    Channel layout : L R
    Частота : 48, 0 КГц
    Частота кадров : 46, 875 кадров/сек (1024 SPF)
    Метод сжатия : С потерями
    Размер потока : 221 Мбайт (4%)
    Заголовок : Hunter.Killer.2018.1080p.KORSUB.HDRip.x264.AAC2.0-STUTTERSHIT
    Язык : English
    Default : Да
    AlternateGroup/String : 1

    Скриншоты для ознакомления


    YouTube Все одноименные релизы в Клубе
    Время раздачи: Сб-Вс с 09: 00 до 23: 30 (до появления первых 3-5 скачавших)

    Онлайн видео Хантер Киллер



    Хантер Киллер/Hunter Killer (2018) WEBRip [H.264/1080p-LQ] [EN/Kor Sub]
    Рейтинг →
     (голосов: 1, оценка 5/5, голосовать можно 1 раз )

    Другие торренты по теме:

  • Хантер Киллер / Hunter Killer (2018) TS [MVO] [AD]
  • Хантер Киллер / Hunter Killer (2018) WEBRip [Звук с TS] [AD]
  • Хантер Киллер / Hunter Killer (2018) WEBRip [EN / Kor Sub]
  • Хантер Киллер / Hunter Killer (2018) WEBRip [MVO] [AD]
  • Хантер Киллер / Hunter Killer (2018) WEBRip [H.264 / 720p-LQ] [Line, AD]
  • Хантер Киллер / Hunter Killer (2018) WEBRip [MVO]
  • Хантер Киллер / Hunter Killer (2018) WEBRip [H.264 / 1080p-LQ] [MVO]
  • Хантер Киллер / Hunter Killer (2018) WEB-DLRip


    • Комментарии (0):

      Информация

      Информация

        Посетители, находящиеся в группе Гости, не могут оставлять комментарии в данной новости.

        ↓ Меню




        ↓ Опрос

        Вы добавили сайт в закладки?
        Да
        Нет


        Популярное