.
Авторизация | Регистрация
bitok.xyz
» » Пожарные Чикаго / Чикаго в Огне / Chicago Fire (2018) WEB-DL [H.264 / 1080p-LQ] (сезон 7, серии 1-9 из 23) TVShows (обновляемая) торрент скачать бесплатно


    Пожарные Чикаго / Чикаго в Огне / Chicago Fire (2018) WEB-DL [H.264 / 1080p-LQ] (сезон 7, серии 1-9 из 23) TVShows (обновляемая) торрент скачать бесплатно

    Дата: 17-12-2018, 05:00 | .torrent скачали: 1

    Пожарные Чикаго / Чикаго в Огне / Chicago Fire (2018) WEB-DL [H.264 / 1080p-LQ] (сезон 7, серии 1-9 из 23) TVShows (обновляемая)Производство: США/Wolf Films, Universal Television
    Жанр: драма
    Режиссер: Сэнфорд Букстейвер, Реза Табрици, Эрик Ланювилль

    Актеры
    Тейлор Кинни, Джесси Спенсер, Кара Киллмер, Дэвид Эйджинберг, Юрий Сардаров, Джо Миносо, Критиан Столте, Миранда Рэй Майо, Иммон Уолкер, Кейт Вилланова и др.

    Описание

    Firehouse 51 — это слаженная команда чикагских пожарных, спасателей и парамедиков, которые ежедневно и еженощно спасают жизни людей попавших в плен огненной стихии. Лейтенант Мэтью Кейси — прирожденный лидер и настоящий пожарный. После разрыва с любимой женщиной он во многом пересмотрел свои взгляды на многие вещи. А после гибели друга и коллеги Эндрю Дардена, Кейси теперь постоянно находится в конфронтации с другим членом команды — спасателем, лейтенантом Келли Северайдом. Они не могут смириться с потерей друга и поэтому обвиняют друг друга в смерти Дардена. Также в команду входят новичок Питер Миллс, чей отец также был пожарным, два парамедика: Габриэла Доусон и Лесли Шей и шеф - Уоллес Боден. Находясь на переднем рубеже жизни и смерти, им приходится принимать не простые решения, они постоянно рискуют своими жизнями, надеясь лишь на поддержку коллег и друзей, что бы ни случилось...

    Возраст: 16+ (зрителям, достигшим 16 лет)
    Продолжительность: ~00: 43: 00 серия
    Качество видео: WEB-DL
    Перевод: Многоголосый закадровый, любительский (TVShows)
    Субтитры: английские
    Видео: AVC/H.264, 1920х1080 (16: 9), ~9291 kbps
    Аудио 1: AC3, 6 ch, 384 kbps - русский, многоголосый закадровый
    Аудио 2: E-AC3, 6 ch, 640 kbps - английский
    Format : Matroska
    Format version : Version 4/Version 2
    File size : 2.95 GiB
    Duration : 41 min 28 s
    Overall bit rate : 10.2 Mb/s
    Encoded date : UTC 2018-10-27 21: 00: 26
    Writing application : mkvmerge v28.2.0 (\'The Awakening\') 32-bit
    Writing library : libebml v1.3.6 + libmatroska v1.4.9
    Video
    ID : 1
    Format : AVC
    Format/Info : Advanced Video Codec
    Format profile : High@L4
    Format settings : CABAC/4 Ref Frames
    Format settings, CABAC : Yes
    Format settings, ReFrames : 4 frames
    Codec ID : V_MPEG4/ISO/AVC
    Duration : 40 min 57 s
    Bit rate : 9 291 kb/s
    Width : 1 920 pixels
    Height : 1 080 pixels
    Display aspect ratio : 16: 9
    Frame rate mode : Constant
    Frame rate : 23.976 (24000/1001) FPS
    Color space : YUV
    Chroma subsampling : 4: 2: 0
    Bit depth : 8 bits
    Scan type : Progressive
    Bits/(Pixel*Frame) : 0.187
    Stream size : 2.66 GiB (90%)
    Default : Yes
    Forced : No
    Color range : Limited
    Color primaries : BT.709
    Transfer characteristics : BT.709
    Matrix coefficients : BT.709
    Audio #1
    ID : 2
    Format : AC-3
    Format/Info : Audio Coding 3
    Codec ID : A_AC3
    Duration : 41 min 28 s
    Bit rate mode : Constant
    Bit rate : 384 kb/s
    Channel(s) : 6 channels
    Channel positions : Front: L C R, Side: L R, LFE
    Sampling rate : 48.0 kHz
    Frame rate : 31.250 FPS (1536 SPF)
    Bit depth : 16 bits
    Compression mode : Lossy
    Stream size : 114 MiB (4%)
    Title : TVShows
    Language : Russian
    Service kind : Complete Main
    Default : Yes
    Forced : Yes
    Audio #2
    ID : 3
    Format : E-AC-3
    Format/Info : Enhanced Audio Coding 3
    Codec ID : A_EAC3
    Duration : 40 min 57 s
    Bit rate mode : Constant
    Bit rate : 640 kb/s
    Channel(s) : 6 channels
    Channel positions : Front: L C R, Side: L R, LFE
    Sampling rate : 48.0 kHz
    Frame rate : 187.500 FPS (256 SPF)
    Compression mode : Lossy
    Stream size : 187 MiB (6%)
    Title : Original
    Language : English
    Service kind : Complete Main
    Default : No
    Forced : No
    Text
    ID : 4
    Format : UTF-8
    Codec ID : S_TEXT/UTF8
    Codec ID/Info : UTF-8 Plain Text
    Duration : 40 min 5 s
    Bit rate : 72 b/s
    Count of elements : 699
    Stream size : 21.3 KiB (0%)
    Title : English
    Language : English
    Default : No
    Forced : No


    Онлайн видео Пожарные Чикаго



    Пожарные Чикаго/Чикаго в Огне/Chicago Fire (2018) WEB-DL [H.264/1080p-LQ] (сезон 7, серии 1-9 из 23) TVShows (обновляемая)
    Рейтинг →
     (голосов: 1, оценка 4/5, голосовать можно 1 раз )

    Другие торренты по теме:

  • Пожарные Чикаго / Чикаго в Огне / Chicago Fire (2014) WEB-DLRip (сезон 3, серии 1 из 22) Шадинский (обновляемая) скачать через торрент бесплатно
  • Пожарные Чикаго / Чикаго в Огне / Chicago Fire (2015) HDTVRip [H.264 / 720p-LQ] (сезон 4, серии 1-1 из 23) Шадинский (Обновляемая) скачать через торрент бесплатно
  • Пожарные Чикаго / Чикаго в Огне / Chicago Fire (2016) WEB-DLRip (сезон 5, серия 1 из 22) Шадинский (обновляемая)
  • Пожарные Чикаго / Чикаго в Огне / Chicago Fire (2016) WEB-DLRip (сезон 5, серии 1-16 из 22) Шадинский (обновляемая)
  • Пожарные Чикаго / Чикаго в Огне / Chicago Fire (2019) WEB-DL [H.264 / 1080p-LQ] (сезон 8, серии 1-4 из 22) TVShows (обновляемая)
  • Пожарные Чикаго / Чикаго в Огне / Chicago Fire (2019) WEB-Rip (сезон 8, серии 1-3 из 22) Шадинский (обновляемая)
  • Пожарные Чикаго / Chicago Fire (2012) BDRip (Сезон 1, серии 1-24 из 24) [SDI Media] скачать через торрент бесплатно
  • Пожарные Чикаго / Chicago Fire (2017) WEB-DL [H.264 / 720p-LQ] (сезон 6, серии 1-23 из 23) Шадинский


    • Комментарии (0):

      Информация

      Информация

        Посетители, находящиеся в группе Гости, не могут оставлять комментарии в данной новости.

        ↓ Меню




        ↓ Опрос

        Вы добавили сайт в закладки?
        Да
        Нет


        Популярное