.
Авторизация | Регистрация
bitok.xyz
» » Ужастики 2: Беспокойный Хэллоуин / Goosebumps 2: Haunted Halloween (2018) WEB-DLRip торрент скачать бесплатно


    Ужастики 2: Беспокойный Хэллоуин / Goosebumps 2: Haunted Halloween (2018) WEB-DLRip торрент скачать бесплатно

    Дата: 25-12-2018, 05:00 | .torrent скачали: 1

    Ужастики 2: Беспокойный Хэллоуин / Goosebumps 2: Haunted Halloween (2018) WEB-DLRipПроизводство: США, Великобритания/Columbia Pictures Corporation, Sony Pictures Animation
    Жанр: Ужасы, Фэнтези, Комедия, Приключения
    Режиссер: Эри Сандел

    Актеры
    Мэдисон Айсмен, Джереми Рэй Тейлор, Калил Харрис, Мик Вингерт, Кен Жонг, Венди МакЛендон-Кови, Крис Парнелл, Брайс Касс, Пейтон Уич, Шэри Хидли

    Описание

    В заброшенном доме парочка ребят находит странную книгу Беспокойный Хэллоуин Р. Л. Стайна. Друзья быстро понимают, почему книгу спрятали подальше от всех, когда небольшой городок заполняют монстры разной степени ужасности.

    Возраст: 6+ (зрителям, достигшим 6 лет)
    Рейтинг MPAA: PG-13 (детям до 13 лет просмотр нежелателен)
    Дата мировой премьеры: 11 октября 2018
    Дата российской премьеры: 1 ноября 2018, WDSSPR
    Релиз от: NNMClub | karfagen1975
    Продолжительность: 01: 29: 41
    Качество видео: WEB-DLRip
    Перевод: Дублированный (iTunes )
    Субтитры: Русские (Full, Forced), Украинские (Full) | Отдельными файлами
    Видео: XviD, 720x300, 24.000 fps, 1 836 Kbps
    Аудио #1: AC3, 6 ch, 384 Kbps | Русский (DUB, iTunes)
    Аудио #2: AC3, 2 ch, 128 Kbps | Украинский (DUB, iTunes)General
    Complete name : Goosebumps.Haunted.Halloween.2018.WEB-DLRip.RU.UKR.NNMClub.avi
    Format : AVI
    Format/Info : Audio Video Interleave
    File size : 1.48 GiB
    Duration : 1 h 29 min
    Overall bit rate : 2 358 kb/s
    Video
    ID : 0
    Format : MPEG-4 Visual
    Format profile : Advanced Simple@L5
    Format settings : BVOP2
    Format settings, BVOP : 2
    Format settings, QPel : No
    Format settings, GMC : No warppoints
    Format settings, Matrix : Default (MPEG)
    Codec ID : XVID
    Codec ID/Hint : XviD
    Duration : 1 h 29 min
    Bit rate : 1 836 kb/s
    Width : 720 pixels
    Height : 300 pixels
    Display aspect ratio : 2.40: 1
    Frame rate : 24.000 FPS
    Color space : YUV
    Chroma subsampling : 4: 2: 0
    Bit depth : 8 bits
    Scan type : Progressive
    Compression mode : Lossy
    Bits/(Pixel*Frame) : 0.354
    Stream size : 1.15 GiB (78%)
    Writing library : XviD 67
    Audio #1
    ID : 1
    Format : AC-3
    Format/Info : Audio Coding 3
    Commercial name : Dolby Digital
    Codec ID : 2000
    Duration : 1 h 29 min
    Bit rate mode : Constant
    Bit rate : 384 kb/s
    Channel(s) : 6 channels
    Channel layout : L R C LFE Ls Rs
    Sampling rate : 48.0 kHz
    Frame rate : 31.250 FPS (1536 SPF)
    Bit depth : 16 bits
    Compression mode : Lossy
    Stream size : 246 MiB (16%)
    Alignment : Aligned on interleaves
    Interleave, duration : 64 ms (1.54 video frames)
    Interleave, preload duratio : 192 ms
    Title : Russian
    Service kind : Complete Main
    Audio #2
    ID : 2
    Format : AC-3
    Format/Info : Audio Coding 3
    Commercial name : Dolby Digital
    Codec ID : 2000
    Duration : 1 h 29 min
    Bit rate mode : Constant
    Bit rate : 128 kb/s
    Channel(s) : 2 channels
    Channel layout : L R
    Sampling rate : 44.1 kHz
    Frame rate : 28.711 FPS (1536 SPF)
    Bit depth : 16 bits
    Compression mode : Lossy
    Stream size : 82.1 MiB (5%)
    Alignment : Aligned on interleaves
    Interleave, duration : 70 ms (1.67 video frames)
    Interleave, preload duratio : 208 ms
    Title : Ukrainian
    Service kind : Complete Main

    Скриншоты для ознакомления



    Все одноименные релизы в Клубе
    Время раздачи: 24/7 (до появления первых 3-5 скачавших)

    Онлайн видео Ужастики 2: Беспокойный Хэллоуин



    Ужастики 2: Беспокойный Хэллоуин/Goosebumps 2: Haunted Halloween (2018) WEB-DLRip
    Рейтинг →
     (голосов: 1, оценка 4/5, голосовать можно 1 раз )

    Другие торренты по теме:

  • Ужастики 2: Беспокойный Хэллоуин / Goosebumps 2: Haunted Halloween (2018) WEB-DLRip [UKR, ENG]
  • Ужастики 2: Беспокойный Хэллоуин / Goosebumps 2: Haunted Halloween (2018) WEB-DL [H.264 / 1080p-LQ] [UKR, ENG]
  • Ужастики 2: Беспокойный Хэллоуин / Goosebumps 2: Haunted Halloween (2018) WEB-DLRip [Line, AD]
  • Ужастики 2: Беспокойный Хэллоуин / Goosebumps 2: Haunted Halloween (2018) WEB-DL [H.264 / 1080p-LQ]
  • Ужастики 2: Беспокойный Хэллоуин / Goosebumps 2: Haunted Halloween (2018) WEB-DL [1080p] ATV
  • Ужастики 2: Беспокойный Хэллоуин / Goosebumps 2: Haunted Halloween (2018) BDRip [H.264 / 1080p] [PR]
  • Ужастики 2: Беспокойный Хэллоуин / Goosebumps 2: Haunted Halloween (2018) BDRip [H.264 / 720p] [PR]
  • Ужастики 2: Беспокойный Хэллоуин / Goosebumps 2: Haunted Halloween (2018) BDRemux [EN / EN, Fr, Sp Sub]


    • Комментарии (0):

      Информация

      Информация

        Посетители, находящиеся в группе Гости, не могут оставлять комментарии в данной новости.

        ↓ Меню




        ↓ Опрос

        Вы добавили сайт в закладки?
        Да
        Нет


        Популярное