.
Авторизация | Регистрация
bitok.xyz
» » Ужастики 2: Беспокойный Хэллоуин / Goosebumps 2: Haunted Halloween (2018) BDRip [H.264 / 720p] [PR] торрент скачать бесплатно


    Ужастики 2: Беспокойный Хэллоуин / Goosebumps 2: Haunted Halloween (2018) BDRip [H.264 / 720p] [PR] торрент скачать бесплатно

    Дата: 6-01-2019, 05:00 | .torrent скачали: 0

    Ужастики 2: Беспокойный Хэллоуин / Goosebumps 2: Haunted Halloween (2018) BDRip [H.264 / 720p] [PR]Производство: США, Великобритания, Columbia Pictures Corporation, Sony Pictures Animation
    Жанр: Ужасы, Фэнтези, Комедия, Приключения
    Режиссер: Эри Сандел

    Актеры
    Мэдисон Айсмен, Джереми Рэй Тейлор, Калил Харрис, Мик Вингерт, Кен Жонг, Венди МакЛендон-Кови, Крис Парнелл, Брайс Касс, Пейтон Уич, Шэри Хидли

    Описание

    В заброшенном доме парочка ребят находит странную книгу Беспокойный Хэллоуин Р. Л. Стайна. Друзья быстро понимают, почему книгу спрятали подальше от всех, когда небольшой городок заполняют монстры разной степени ужасности.

    Возраст: 6+ (зрителям, достигшим 6 лет)
    Рейтинг MPAA: PG-13 (детям до 13 лет просмотр нежелателен)
    Дата мировой премьеры: 11 октября 2018
    Дата российской премьеры: 1 ноября 2018, WDSSPR
    Релиз от: Селезень
    Продолжительность: 01: 29: 48
    Качество видео: BDRip (GECKOS )
    Перевод: Дублированный
    Субтитры: Русские, английские, украинские
    Видео: AVC/H.264, 1280x536, ~5458 Kbps
    Аудио #1: AC3, 6 ch, 384 Kbps | Русский (DUB, iTunes)
    Аудио #2: AC3, 2 ch, 160 Kbps | Украинский
    Аудио #3: DTS, 6 ch, 1509 Kbps | Английский
    Общее
    Уникальный идентификатор : 104326244534877364348189334897047612601 (0x4E7C80FB3BC4D0643FA0F243868BACB9)
    Полное имя : C: UsersUserDesktopNNMClubGoosebumps.2.Haunted.Halloween.2018.BDRip.720p.mkv
    Формат : Matroska
    Версия формата : Version 4
    Размер файла : 4, 71 Гбайт
    Продолжительность : 1 ч. 29 м.
    Общий поток : 7514 Кбит/сек
    Дата кодирования : UTC 2019-01-04 22: 33: 26
    Программа кодирования : mkvmerge v29.0.0 (\'Like It Or Not\') 64-bit
    Библиотека кодирования : libebml v1.3.6 + libmatroska v1.4.9
    Видео
    Идентификатор : 1
    Формат : AVC
    Формат/Информация : Advanced Video Codec
    Профиль формата : High@L4.1
    Настройки формата : CABAC/5 Ref Frames
    Параметр CABAC формата : Да
    Параметр RefFrames формата : 5 кадров
    Идентификатор кодека : V_MPEG4/ISO/AVC
    Продолжительность : 1 ч. 29 м.
    Битрейт : 5458 Кбит/сек
    Ширина : 1280 пикселей
    Высота : 536 пикселей
    Соотношение сторон : 2, 40: 1
    Режим частоты кадров : Постоянный
    Частота кадров : 23, 976 (24000/1001) кадра/сек
    Цветовое пространство : YUV
    Субдискретизация насыщенности : 4: 2: 0
    Битовая глубина : 8 бит
    Тип развёртки : Прогрессивная
    Бит/(Пиксели*Кадры) : 0.332
    Размер потока : 3, 42 Гбайт (73%)
    Библиотека кодирования : x264 core 157 r2935 545de2f
    Настройки программы : cabac=1/ref=5/deblock=1: -3: -3/analyse=0x3: 0x113/me=umh/subme=8/psy=1/psy_rd=1.00: 0.00/mixed_ref=1/me_range=16/chroma_me=1/trellis=1/8x8dct=1/cqm=0/deadzone=21, 11/fast_pskip=1/chroma_qp_offset=-2/threads=17/lookahead_threads=2/sliced_threads=0/nr=0/decimate=1/interlaced=0/bluray_compat=0/constrained_intra=0/bframes=3/b_pyramid=2/b_adapt=1/b_bias=0/direct=3/weightb=1/open_gop=0/weightp=2/keyint=250/keyint_min=23/scenecut=40/intra_refresh=0/rc_lookahead=50/rc=2pass/mbtree=1/bitrate=5458/ratetol=1.0/qcomp=0.60/qpmin=0/qpmax=69/qpstep=4/cplxblur=20.0/qblur=0.5/ip_ratio=1.40/aq=1: 1.00
    Язык : English
    Default : Да
    Forced : Нет
    Аудио #1
    Идентификатор : 2
    Формат : AC-3
    Формат/Информация : Audio Coding 3
    Коммерческое название : Dolby Digital
    Идентификатор кодека : A_AC3
    Продолжительность : 1 ч. 29 м.
    Вид битрейта : Постоянный
    Битрейт : 384 Кбит/сек
    Каналы : 6 каналов
    Channel layout : L R C LFE Ls Rs
    Частота : 48, 0 КГц
    Частота кадров : 31, 250 кадров/сек (1536 SPF)
    Битовая глубина : 16 бит
    Метод сжатия : С потерями
    Размер потока : 247 Мбайт (5%)
    Язык : Russian
    ServiceKind/String : Complete Main
    Default : Да
    Forced : Да
    Аудио #2
    Идентификатор : 3
    Формат : AC-3
    Формат/Информация : Audio Coding 3
    Коммерческое название : Dolby Digital
    Идентификатор кодека : A_AC3
    Продолжительность : 1 ч. 29 м.
    Вид битрейта : Постоянный
    Битрейт : 160 Кбит/сек
    Каналы : 2 канала
    Channel layout : L R
    Частота : 48, 0 КГц
    Частота кадров : 31, 250 кадров/сек (1536 SPF)
    Битовая глубина : 16 бит
    Метод сжатия : С потерями
    Размер потока : 103 Мбайт (2%)
    Язык : Ukrainian
    ServiceKind/String : Complete Main
    Default : Нет
    Forced : Нет
    Аудио #3
    Идентификатор : 4
    Формат : DTS
    Формат/Информация : Digital Theater Systems
    Идентификатор кодека : A_DTS
    Продолжительность : 1 ч. 29 м.
    Вид битрейта : Постоянный
    Битрейт : 1509 Кбит/сек
    Каналы : 6 каналов
    Channel layout : C L R Ls Rs LFE
    Частота : 48, 0 КГц
    Частота кадров : 93, 750 кадра/сек (512 SPF)
    Битовая глубина : 24 бит
    Метод сжатия : С потерями
    Размер потока : 969 Мбайт (20%)
    Язык : English
    Default : Нет
    Forced : Нет
    Текст #1
    Идентификатор : 5
    Формат : UTF-8
    Идентификатор кодека : S_TEXT/UTF8
    Идентификатор кодека/Информация : UTF-8 Plain Text
    Продолжительность : 1 ч. 1 м.
    Битрейт : 0 бит/сек
    ElementCount : 3
    Размер потока : 105 байт (0%)
    Язык : Russian
    Default : Да
    Forced : Да
    Текст #2
    Идентификатор : 6
    Формат : UTF-8
    Идентификатор кодека : S_TEXT/UTF8
    Идентификатор кодека/Информация : UTF-8 Plain Text
    Продолжительность : 1 ч. 28 м.
    Битрейт : 80 бит/сек
    ElementCount : 1122
    Размер потока : 52, 0 Кбайт (0%)
    Язык : Russian
    Default : Нет
    Forced : Нет
    Текст #3
    Идентификатор : 7
    Формат : UTF-8
    Идентификатор кодека : S_TEXT/UTF8
    Идентификатор кодека/Информация : UTF-8 Plain Text
    Продолжительность : 1 ч. 28 м.
    Битрейт : 78 бит/сек
    ElementCount : 1125
    Размер потока : 50, 7 Кбайт (0%)
    Язык : Ukrainian
    Default : Нет
    Forced : Нет
    Текст #4
    Идентификатор : 8
    Формат : UTF-8
    Идентификатор кодека : S_TEXT/UTF8
    Идентификатор кодека/Информация : UTF-8 Plain Text
    Продолжительность : 1 ч. 27 м.
    Битрейт : 59 бит/сек
    ElementCount : 1277
    Размер потока : 38, 0 Кбайт (0%)
    Язык : English
    Default : Нет
    Forced : Нет
    Меню
    00: 00: 00.000 : en: 1
    00: 04: 32.439 : en: 2
    00: 11: 15.174 : en: 3
    00: 18: 42.913 : en: 4
    00: 21: 40.632 : en: 5
    00: 27: 22.348 : en: 6
    00: 32: 36.119 : en: 7
    00: 37: 47.430 : en: 8
    00: 45: 13.917 : en: 9
    00: 50: 10.712 : en: 10
    00: 56: 16.702 : en: 11
    01: 00: 34.750 : en: 12
    01: 05: 27.125 : en: 13
    01: 09: 24.110 : en: 14
    01: 14: 36.921 : en: 15
    01: 20: 28.314 : en: 16

    Скриншоты для ознакомления



    Все одноименные релизы в Клубе
    Время раздачи: 24/7 (до появления первых 3-5 скачавших)

    Онлайн видео Ужастики 2: Беспокойный Хэллоуин



    Ужастики 2: Беспокойный Хэллоуин/Goosebumps 2: Haunted Halloween (2018) BDRip [H.264/720p] [PR]
    Рейтинг →
     (голосов: 1, оценка 3/5, голосовать можно 1 раз )

    Другие торренты по теме:

  • Ужастики 2: Беспокойный Хэллоуин / Goosebumps 2: Haunted Halloween (2018) WEB-DLRip [UKR, ENG]
  • Ужастики 2: Беспокойный Хэллоуин / Goosebumps 2: Haunted Halloween (2018) WEB-DL [H.264 / 1080p-LQ] [UKR, ENG]
  • Ужастики 2: Беспокойный Хэллоуин / Goosebumps 2: Haunted Halloween (2018) WEB-DLRip [Line, AD]
  • Ужастики 2: Беспокойный Хэллоуин / Goosebumps 2: Haunted Halloween (2018) WEB-DLRip
  • Ужастики 2: Беспокойный Хэллоуин / Goosebumps 2: Haunted Halloween (2018) WEB-DL [H.264 / 1080p-LQ]
  • Ужастики 2: Беспокойный Хэллоуин / Goosebumps 2: Haunted Halloween (2018) WEB-DL [1080p] ATV
  • Ужастики 2: Беспокойный Хэллоуин / Goosebumps 2: Haunted Halloween (2018) BDRip [H.264 / 1080p] [PR]
  • Ужастики 2: Беспокойный Хэллоуин / Goosebumps 2: Haunted Halloween (2018) BDRemux [EN / EN, Fr, Sp Sub]


    • Комментарии (0):

      Информация

      Информация

        Посетители, находящиеся в группе Гости, не могут оставлять комментарии в данной новости.

        ↓ Меню




        ↓ Опрос

        Вы добавили сайт в закладки?
        Да
        Нет


        Популярное