.
Авторизация | Регистрация

bitok.xyz

» » Хантер Киллер / Hunter Killer (2018) WEBRip [H.264 / 1080p-LQ] [MVO] торрент скачать бесплатно


    Хантер Киллер / Hunter Killer (2018) WEBRip [H.264 / 1080p-LQ] [MVO] торрент скачать бесплатно

    Дата: 12-01-2019, 05:00 | .torrent скачали: 3

    Хантер Киллер / Hunter Killer (2018) WEBRip [H.264 / 1080p-LQ] [MVO]Производство: США/Hunter Killer Productions, G-BASE, Hishow Entertainment
    Жанр: Боевик, Триллер
    Режиссер: Донован Марш

    Актеры
    Джерард Батлер, Гэри Олдман, Этан Бейрд, Джейкоб Скипио, Демпси Бовелл, Кори Джонсон, Адам Джеймс, Коммон, Генри Гудман, Колин Стинтон

    Описание

    Американская атакующая субмарина Хантер Киллер вместе с подразделением Военно-Морских сил США вступает в крайне рискованную боевую авантюру. Когда время на исходе и каждая минута на счету, элитной команде придется совершить невозможное, чтобы предотвратить конфликт мирового масштаба.

    Возраст: 18+ (зрителям, достигшим 18 лет. запрещено для детей)
    Рейтинг MPAA: R (лицам до 17 лет обязательно присутствие взрослого)
    Дата мировой премьеры: 19 октября 2018
    Дата российской премьеры: 8 ноября 2018
    Продолжительность: 02: 00: 54
    Качество видео: WEBRip
    Перевод: Многоголосый закадровый, профессиональный
    Субтитры: Корейские (хардсаб)
    Видео: AVC/H.264, 1920x800, ~5658 Kbps
    Аудио #1: AC3, 2 ch, 192 Kbps | Русский (MVO, HDRezka Studio)
    Аудио #2: AC3, 2 ch, 192 Kbps | Английский
    Общее
    Уникальный идентификатор : 208018395053784671943030117564696796819 (0x9C7EE2B6CBC74EA4BBBD59A9EFFC9E93)
    Полное имя : C: UsersUserDesktopNNMClubHunter_Killer_2018_WEBRip_1080p.mkv
    Формат : Matroska
    Версия формата : Version 4
    Размер файла : 5, 21 Гбайт
    Продолжительность : 2 ч. 0 м.
    Общий поток : 6165 Кбит/сек
    Название фильма : Hunter_Killer_2018_All .org_by Dalemake
    Дата кодирования : UTC 2019-01-11 11: 57: 55
    Программа кодирования : mkvmerge v6.1.0 (\'Old Devil\') built on Mar 4 2013 09: 10: 42
    Библиотека кодирования : libebml v1.3.0 + libmatroska v1.4.0
    Видео
    Идентификатор : 1
    Формат : AVC
    Формат/Информация : Advanced Video Codec
    Профиль формата : High@L4.1
    Настройки формата : CABAC/4 Ref Frames
    Параметр CABAC формата : Да
    Параметр RefFrames формата : 4 кадра
    Идентификатор кодека : V_MPEG4/ISO/AVC
    Продолжительность : 2 ч. 0 м.
    Битрейт : 5658 Кбит/сек
    Номинальный битрейт : 6000 Кбит/сек
    Ширина : 1920 пикселей
    Высота : 800 пикселей
    Соотношение сторон : 2, 40: 1
    Режим частоты кадров : Постоянный
    Частота кадров : 25, 000 кадров/сек
    Цветовое пространство : YUV
    Субдискретизация насыщенности : 4: 2: 0
    Битовая глубина : 8 бит
    Тип развёртки : Прогрессивная
    Бит/(Пиксели*Кадры) : 0.147
    Размер потока : 4, 78 Гбайт (92%)
    Заголовок : Hunter_Killer_2018_All .org_by Dalemake
    Библиотека кодирования : x264 core 152 r2851kMod ba24899
    Настройки программы : cabac=1/ref=4/deblock=1: 0: 0/analyse=0x3: 0x113/me=hex/subme=7/psy=1/fade_compensate=0.00/psy_rd=1.00: 0.00/mixed_ref=1/me_range=16/chroma_me=1/trellis=1/8x8dct=1/cqm=0/deadzone=21, 11/fast_pskip=1/chroma_qp_offset=-2/threads=25/lookahead_threads=4/sliced_threads=0/nr=0/decimate=0/interlaced=0/bluray_compat=0/constrained_intra=0/bframes=3/b_pyramid=2/b_adapt=1/b_bias=0/direct=1/weightb=1/open_gop=0/weightp=2/keyint=250/keyint_min=25/scenecut=40/intra_refresh=0/rc_lookahead=40/rc=abr/mbtree=1/bitrate=6000/ratetol=1.0/qcomp=0.60/qpmin=0/qpmax=69/qpstep=4/ip_ratio=1.40/aq=1: 1.00
    Default : Да
    Forced : Нет
    Цветовой диапазон : Limited
    Основные цвета : BT.709
    Характеристики трансфера : BT.709
    Коэффициенты матрицы : BT.709
    Аудио #1
    Идентификатор : 2
    Формат : AC-3
    Формат/Информация : Audio Coding 3
    Коммерческое название : Dolby Digital
    Идентификатор кодека : A_AC3
    Продолжительность : 2 ч. 0 м.
    Вид битрейта : Постоянный
    Битрейт : 192 Кбит/сек
    Каналы : 2 канала
    Channel layout : L R
    Частота : 48, 0 КГц
    Частота кадров : 31, 250 кадров/сек (1536 SPF)
    Битовая глубина : 16 бит
    Метод сжатия : С потерями
    Размер потока : 166 Мбайт (3%)
    Заголовок : MVO - HDrezka Studio
    Язык : Russian
    ServiceKind/String : Complete Main
    Default : Да
    Forced : Нет
    Аудио #2
    Идентификатор : 3
    Формат : AC-3
    Формат/Информация : Audio Coding 3
    Коммерческое название : Dolby Digital
    Идентификатор кодека : A_AC3
    Продолжительность : 2 ч. 0 м.
    Вид битрейта : Постоянный
    Битрейт : 192 Кбит/сек
    Каналы : 2 канала
    Channel layout : L R
    Частота : 48, 0 КГц
    Частота кадров : 31, 250 кадров/сек (1536 SPF)
    Битовая глубина : 16 бит
    Метод сжатия : С потерями
    Размер потока : 166 Мбайт (3%)
    Заголовок : Original
    Язык : English
    ServiceKind/String : Complete Main
    Default : Нет
    Forced : Нет

    Скриншоты для ознакомления



    Все одноименные релизы в Клубе
    Время раздачи: 24/7 (до появления первых 3-5 скачавших)

    Онлайн видео Хантер Киллер



    Хантер Киллер/Hunter Killer (2018) WEBRip [H.264/1080p-LQ] [MVO]
    Рейтинг →
     (голосов: 1, оценка 3/5, голосовать можно 1 раз )

    Другие торренты по теме:

  • Хантер Киллер / Hunter Killer (2018) HDRip [H.265] [10-bit]
  • Хантер Киллер / Hunter Killer (2018) TS [MVO] [AD]
  • Хантер Киллер / Hunter Killer (2018) WEBRip [Звук с TS] [AD]
  • Хантер Киллер / Hunter Killer (2018) WEBRip [EN / Kor Sub]
  • Хантер Киллер / Hunter Killer (2018) WEBRip [H.264 / 1080p-LQ] [EN / Kor Sub]
  • Хантер Киллер / Hunter Killer (2018) WEBRip [MVO] [AD]
  • Хантер Киллер / Hunter Killer (2018) WEBRip [H.264 / 720p-LQ] [Line, AD]
  • Хантер Киллер / Hunter Killer (2018) WEBRip [MVO]


    • Комментарии (0):

      Информация

      Информация

        Посетители, находящиеся в группе Гости, не могут оставлять комментарии в данной новости.

        ↓ Меню




        ↓ Опрос

        Вы добавили сайт в закладки?
        Да
        Нет


        Популярное