.
Авторизация | Регистрация

bitok.xyz

» » След (2007-2019) SATRip (серии 1-2135) торрент скачать бесплатно


    След (2007-2019) SATRip (серии 1-2135) торрент скачать бесплатно

    Дата: 28-01-2019, 05:00 | .torrent скачали: 190

    След (2007-2019) SATRip (серии 1-2135)Производство: Россия/ДокуДрама и ООО Объединение Телевизионных Компаний
    Жанр: криминал, детектив
    Режиссер: Игорь Ромащенко, Владимир Кошеваров, Камиль Закиров

    Актеры
    Ольга Копосова, Владимир Ташлыков, Павел Шуваев, Сергей Пиоро, Андрей Лавров, Евгений Кулаков, Дмитрий Комов, Александр Баринов, Константин Демидов, Ольга Мокшина и др.

    Описание

    Идеальных преступлений не бывает. После каждого остаются следы. Иногда эти следы бросаются в глаза. Иногда их можно найти только с помощью специальных приборов. Федеральная Экспертная служба - это уникальная лаборатория, которая объединяет несколько экспертных служб в одну и отвечает за проведение исследований во всех мыслимых областях прикладной криминалистики, будь то химическая, биологическая, медицинская экспертиза или баллистика...

    Возраст: 16+ (зрителям, достигшим 16 лет)
    Продолжительность: ~00: 45: 00 серия
    Качество видео: SATRip
    Видео: Xvid, 640х368, 672х368, 704x400, ~1400 Kbps
    Аудио: MP3, 2 ch, 128 Kbps
    Общее
    Полное имя : \511 - Здоровье по безналу.avi
    Формат : AVI
    Формат/Информация : Audio Video Interleave
    Размер файла : 360 Мбайт
    Продолжительность : 35 м. 10 с.
    Общий поток : 1433 Кбит/сек
    Библиотека кодирования : VirtualDub-MPEG2 build 24586/release
    Видео
    Идентификатор : 0
    Формат : MPEG-4 Visual
    Профиль формата : Advanced Simple@L5
    Настройки формата : BVOP2/Custom Matrix
    Параметр BVOP формата : 2
    Параметр QPel формата : Нет
    Параметр GMC формата : Без точки перехода
    Параметр матрицы формата : Выборочная
    Режим смешивания : Сжатый битовый поток
    Идентификатор кодека : XVID
    Идентификатор кодека/Подсказка : XviD
    Продолжительность : 35 м. 10 с.
    Битрейт : 1295 Кбит/сек
    Ширина : 672 пикселя
    Высота : 368 пикселей
    Соотношение сторон : 1, 85: 1
    Частота кадров : 25, 000 кадров/сек
    Цветовое пространство : YUV
    Субдискретизация насыщенности : 4: 2: 0
    Битовая глубина : 8 бит
    Тип развёртки : Прогрессивная
    Метод сжатия : С потерями
    Бит/(Пиксели*Кадры) : 0.209
    Размер потока : 326 Мбайт (90%)
    Библиотека кодирования : XviD 1.2.1 (UTC 2008-12-04)
    Аудио
    Идентификатор : 1
    Формат : MPEG Audio
    Версия формата : Version 1
    Профиль формата : Layer 3
    Настройки формата : Joint stereo/MS Stereo
    Идентификатор кодека : 55
    Идентификатор кодека/Подсказка : MP3
    Продолжительность : 35 м. 10 с.
    Вид битрейта : Постоянный
    Битрейт : 128 Кбит/сек
    Каналы : 2 канала
    Частота : 48, 0 КГц
    Метод сжатия : С потерями
    Размер потока : 32, 2 Мбайт (9%)
    Выравнивание : Разделение по промежуткам
    Продолжительность промежутка : 40 мс. (1, 00 видеокадр)
    Время предзагрузки промежутка : 500 мс.
    Общее
    Полное имя : \1703 - Ничего святого.avi
    Формат : AVI
    Формат/Информация : Audio Video Interleave
    Размер файла : 414 Мбайт
    Продолжительность : 37 м. 36 с.
    Общий поток : 1539 Кбит/сек
    Программа кодирования : VirtualDubMod 1.5.10.3 |www.virtualdub-fr.org|| (build 2550/release)
    Библиотека кодирования : VirtualDubMod build 2550/release
    Видео
    Идентификатор : 0
    Формат : MPEG-4 Visual
    Профиль формата : Advanced Simple@L5
    Настройки формата : BVOP1
    Параметр BVOP формата : 1
    Параметр QPel формата : Нет
    Параметр GMC формата : Без точки перехода
    Параметр матрицы формата : Default (MPEG)
    Идентификатор кодека : XVID
    Идентификатор кодека/Подсказка : XviD
    Продолжительность : 37 м. 36 с.
    Битрейт : 1401 Кбит/сек
    Ширина : 704 пикселя
    Высота : 400 пикселей
    Соотношение сторон : 16: 9
    Частота кадров : 25, 000 кадров/сек
    Цветовое пространство : YUV
    Субдискретизация насыщенности : 4: 2: 0
    Битовая глубина : 8 бит
    Тип развёртки : Прогрессивная
    Метод сжатия : С потерями
    Бит/(Пиксели*Кадры) : 0.199
    Размер потока : 377 Мбайт (91%)
    Библиотека кодирования : XviD 73
    Аудио
    Идентификатор : 1
    Формат : MPEG Audio
    Версия формата : Version 1
    Профиль формата : Layer 3
    Идентификатор кодека : 55
    Идентификатор кодека/Подсказка : MP3
    Продолжительность : 37 м. 36 с.
    Вид битрейта : Постоянный
    Битрейт : 128 Кбит/сек
    Каналы : 2 канала
    Частота : 48, 0 КГц
    Частота кадров : 41, 667 кадра/сек (1152 SPF)
    Метод сжатия : С потерями
    Размер потока : 34, 4 Мбайт (8%)
    Выравнивание : Соединение по промежуткам
    Продолжительность промежутка : 40 мс. (1, 00 видеокадр)
    Время предзагрузки промежутка : 504 мс.
    Библиотека кодирования : LAME3.99r
    Настройки программы : -m s -V 4 -q 0 -lowpass 17 -b 128
    “След” – российский детективный сериал, рассказывающий о работе Федеральной Экспертной Службы (сокращёно ФЭС). ФЭС это особое подразделение МВД, оборудованное суперсовременным оборудованием и специализирующееся на раскрытии сложных и запутанных преступлений. Сотрудники ФЭС – эксперты-криминалисты, медики, биологии, балисты, программисты, патологоанатомы. Все они – настоящие профессионалы своего дела, способные раскрыть самое запутанное преступление. Для этого у них есть всё необходимое.
    Сериал “След” является русским аналогом американского фильма “CSI: место преступления”. Съёмки сериала были начаты в 2007 году. В 2009 году сериал был удостоен премии “ТЭФИ-2009” в номинации Телевизионный художественный сериал. Сценарий для сериала След пишут Павел Песков, Александр Шуравин, Ася и Алексей Демидовы, Раф Гуревич, Кирилл Плетнер.
    Каждая серия является самостоятельной историей расследования. Поэтому смотреть сериал След можно с любой серии, даже если вы не видели предыдущих.
    Скриншоты для ознакомления



    Все одноименные релизы в Клубе
    Время раздачи: 24/7 (до появления первых 3-5 скачавших)

    Онлайн видео След (2007



    След (2007-2019) SATRip (серии 1-2135)
    Рейтинг →
     (голосов: 1, оценка 4/5, голосовать можно 1 раз )

    Другие торренты по теме:

  • След Пираньи (2014) SATRip [Серия 1-4 из 4] скачать через торрент бесплатно
  • След (2014) SATRip (серии 1001 - 1099)
  • След (2014) SATRip (Серии 1100 - 1103) (Обновляемая) скачать через торрент бесплатно
  • След тигра (2014) SATRip
  • След тигра (2014) SATRip [H.264] скачать через торрент бесплатно
  • Русский след. Крым. Последний причал (2014) SATRip
  • Кодекс молчания 2: След чёрной рыбы (1992) SATRip (2 серии) скачать через торрент бесплатно
  • След (2015) SATRip (серии: 1201-1208) (обновляемая) скачать через торрент бесплатно


    • Комментарии (0):

      Информация

      Информация

        Посетители, находящиеся в группе Гости, не могут оставлять комментарии в данной новости.

        ↓ Меню




        ↓ Опрос

        Вы добавили сайт в закладки?
        Да
        Нет


        Популярное