.
Авторизация | Регистрация

bitok.xyz

» » Робин Гуд: Начало / Robin Hood (2018) WEB-DLRip [Line, AD] торрент скачать бесплатно


    Робин Гуд: Начало / Robin Hood (2018) WEB-DLRip [Line, AD] торрент скачать бесплатно

    Дата: 9-02-2019, 05:00 | .torrent скачали: 3

    Робин Гуд: Начало / Robin Hood (2018) WEB-DLRip [Line, AD]Производство: США, Appian Way, Pixoloid Studios, Safehouse Pictures, Summit Entertainment, Thunder Road
    Жанр: Боевик, Триллер, Приключения
    Режиссер: Отто Батхёрст
    Продюсер: Дженнифер Дэвиссон, Коннор ДеШа, Леонардо ДиКаприо

    Актеры
    Тэрон Эджертон, Джейми Фокс, Бен Мендельсон, Ив Хьюсон, Джейми Дорнан, Тим Минчин, Пол Андерсон, Ф. Мюррэй Абрахам, Йен Пек, Корнелиус Бут

    Описание

    Ветеран Крестовых походов Робин из Локсли и его командир-мавр по возвращении в Англию видят, что родная страна погрязла в коррупции. Вместе они решают изменить положение дел и запускают маховики массовой революции, в центре которой окажется загадочный разбойник.

    Возраст: 16+ (зрителям, достигшим 16 лет)
    Рейтинг MPAA: PG-13 (детям до 13 лет просмотр нежелателен)
    Дата мировой премьеры: 20 ноября 2018
    Дата премьеры в России: 29 ноября 2018, Централ Партнершип

    Продолжительность: 01: 56: 01
    Качество видео: WEB-DLRip
    Перевод: Дублированный (Чистый звук)
    Субтитры: Отсутствуют
    Реклама: Присутствуют текстовые вставки рекламы
    Видео: Xvid, 720x304, 2191 kbps
    Аудио: АС3, 2 ch, 48 kHz, 384 KbpsОбщее
    Полное имя : Robin Hood.2018.WEB-DLRip.avi
    Формат : AVI
    Формат/Информация : Audio Video Interleave
    Профиль формата : OpenDML
    Размер файла : 2, 10 Гбайт
    Продолжительность : 1 ч. 56 м.
    Общий поток : 2587 Кбит/сек
    Библиотека кодирования : VirtualDub build 35576/release
    Видео
    Идентификатор : 0
    Формат : MPEG-4 Visual
    Профиль формата : Advanced Simple@L5
    Настройки формата : BVOP2
    Параметр BVOP формата : 2
    Параметр QPel формата : Нет
    Параметр GMC формата : Без точки перехода
    Параметр матрицы формата : Default (H.263)
    Режим смешивания : Сжатый битовый поток
    Идентификатор кодека : XVID
    Идентификатор кодека/Подсказка : XviD
    Продолжительность : 1 ч. 56 м.
    Битрейт : 2191 Кбит/сек
    Ширина : 720 пикселей
    Высота : 304 пикселя
    Соотношение сторон : 2, 35: 1
    Частота кадров : 23, 976 (24000/1001) кадра/сек
    Цветовое пространство : YUV
    Субдискретизация насыщенности : 4: 2: 0
    Битовая глубина : 8 бит
    Тип развёртки : Прогрессивная
    Метод сжатия : С потерями
    Бит/(Пиксели*Кадры) : 0.417
    Размер потока : 1, 78 Гбайт (85%)
    Библиотека кодирования : XviD 73
    Аудио
    Идентификатор : 1
    Формат : AC-3
    Формат/Информация : Audio Coding 3
    Коммерческое название : Dolby Digital
    Идентификатор кодека : 2000
    Продолжительность : 1 ч. 56 м.
    Продолжительность оригинала : 1 ч. 56 м.
    Вид битрейта : Постоянный
    Битрейт : 384 Кбит/сек
    Каналы : 2 канала
    Channel layout : L R
    Частота : 48, 0 КГц
    Частота кадров : 31, 250 кадров/сек (1536 SPF)
    Битовая глубина : 16 бит
    Метод сжатия : С потерями
    Размер потока : 319 Мбайт (15%)
    Выравнивание : Соединение по промежуткам
    Продолжительность промежутка : 42 мс. (1, 00 видеокадр)
    Время предзагрузки промежутка : 512 мс.
    Скриншоты для ознакомления



    Все одноименные релизы в Клубе
    Время раздачи: 24/7 (до появления первых 3-5 скачавших)

    Онлайн видео Робин Гуд: Начало



    Робин Гуд: Начало/Robin Hood (2018) WEB-DLRip [Line, AD]
    Рейтинг →
     (голосов: 1, оценка 5/5, голосовать можно 1 раз )

    Другие торренты по теме:

  • Робин Гуд: Начало / Robin Hood (2018) TS [MVO] [AD]
  • Робин Гуд: Начало / Robin Hood (2018) WEB-DLRip [H.264 / 1080p-LQ] [Line, AD]
  • Робин Гуд: Начало / Robin Hood (2018) WEB-DLRip [H.264 / 720p-LQ] [Line, AD]
  • Робин Гуд: Начало / Robin Hood (2018) WEB-DL [H.264 / 1080p-LQ] [UKR, EN / Eng Sub]
  • Робин Гуд: Начало / Robin Hood (2018) WEB-DL [H.264 / 1080p] [UKR, EN / Eng Sub]
  • Робин Гуд: Начало / Robin Hood (2018) WEB-DL [H.264 / 1080p-LQ] [MVO]
  • Робин Гуд: Начало / Robin Hood (2018) HDRip [MVO]
  • Робин Гуд: Начало / Robin Hood (2018) WEB-DL [1080p] ATV


    • Комментарии (0):

      Информация

      Информация

        Посетители, находящиеся в группе Гости, не могут оставлять комментарии в данной новости.

        ↓ Меню




        ↓ Опрос

        Вы добавили сайт в закладки?
        Да
        Нет


        Популярное