.
Авторизация | Регистрация
bitok.xyz
» » Москва-Владивосток (2019) WEBRip [H.264 / 1080p-LQ] [PR] торрент скачать бесплатно


    Москва-Владивосток (2019) WEBRip [H.264 / 1080p-LQ] [PR] торрент скачать бесплатно

    Дата: 10-02-2019, 05:00 | .torrent скачали: 267

    Москва-Владивосток (2019) WEBRip [H.264 / 1080p-LQ] [PR]Производство: Россия/Дядя Ваня
    Жанр: Короткометражный, комедия, музыка
    Режиссер: Иван Соснин

    Актеры
    Антон Адасинский, Вадим Норштейн, Екатерина Головина

    Описание

    В плацкартный вагон поезда дальнего следования забегает молодой парень Саша с гитарой в чехле. Он, как и многие другие музыканты, пытался покорить Москву, но не сумел. Саша селится в купе к взрослому вахтовику Ивану, возвращающемуся домой. За долгое время в пути герои успевают подружиться, написать песни, создать свою музыкальную группу и выступить на перронах в нескольких городах. Но что же будет с их группой, когда Иван выйдет на своей станции?

    Продолжительность: 00: 18: 35
    Качество видео: WEBRip
    Перевод: Не требуется (русский)
    Субтитры: Отсутствуют
    Видео: AVC/H.264, 1920x1080 (16: 9), ~5080 Kbps
    Аудио: AC3, 2 ch, 192 Kbps
    Общее
    Уникальный идентификатор : 215379289289262778127005887405040051673 (0xA2088AD1D558232D5E451CABD8EBA5D9)
    Полное имя : D: 1Москва-Владивосток (2019).mkv
    Формат : Matroska
    Версия формата : Version 4
    Размер файла : 701 Мбайт
    Продолжительность : 18 м. 35 с.
    Общий поток : 5272 Кбит/сек
    Дата кодирования : UTC 2019-02-09 09: 40: 10
    Программа кодирования : mkvmerge v30.1.0 (\'Forever And More\') 32-bit
    Библиотека кодирования : libebml v1.3.6 + libmatroska v1.4.9/Lavf57.71.100
    Видео
    Идентификатор : 1
    Формат : AVC
    Формат/Информация : Advanced Video Codec
    Профиль формата : High@L4
    Настройки формата : CABAC/5 Ref Frames
    Параметр CABAC формата : Да
    Параметр RefFrames формата : 5 кадров
    Идентификатор кодека : V_MPEG4/ISO/AVC
    Продолжительность : 18 м. 35 с.
    Битрейт : 5078 Кбит/сек
    Ширина : 1920 пикселей
    Высота : 1080 пикселей
    Соотношение сторон : 16: 9
    Режим частоты кадров : Постоянный
    Частота кадров : 25, 000 кадров/сек
    Цветовое пространство : YUV
    Субдискретизация насыщенности : 4: 2: 0
    Битовая глубина : 8 бит
    Тип развёртки : Прогрессивная
    Бит/(Пиксели*Кадры) : 0.098
    Размер потока : 675 Мбайт (96%)
    Библиотека кодирования : x264 core 157 r10 545de2f
    Настройки программы : cabac=1/ref=5/deblock=1: 0: 0/analyse=0x3: 0x113/me=hex/subme=8/psy=1/psy_rd=1.00: 0.00/mixed_ref=1/me_range=16/chroma_me=1/trellis=2/8x8dct=1/cqm=0/deadzone=21, 11/fast_pskip=1/chroma_qp_offset=-2/threads=34/lookahead_threads=5/sliced_threads=0/nr=0/decimate=1/interlaced=0/bluray_compat=0/stitchable=1/constrained_intra=0/bframes=3/b_pyramid=2/b_adapt=2/b_bias=0/direct=3/weightb=1/open_gop=0/weightp=2/keyint=infinite/keyint_min=25/scenecut=40/intra_refresh=0/rc_lookahead=50/rc=crf/mbtree=1/crf=20.0/qcomp=0.60/qpmin=5/qpmax=69/qpstep=4/vbv_maxrate=5500/vbv_bufsize=15000/crf_max=0.0/nal_hrd=none/filler=0/ip_ratio=1.40/aq=1: 1.00
    Default : Да
    Forced : Нет
    Цветовой диапазон : Limited
    Основные цвета : BT.709
    Характеристики трансфера : BT.709
    Коэффициенты матрицы : BT.709
    Аудио
    Идентификатор : 2
    Формат : AC-3
    Формат/Информация : Audio Coding 3
    Коммерческое название : Dolby Digital
    Идентификатор кодека : A_AC3
    Продолжительность : 18 м. 35 с.
    Вид битрейта : Постоянный
    Битрейт : 192 Кбит/сек
    Каналы : 2 канала
    Channel layout : L R
    Частота : 48, 0 КГц
    Частота кадров : 31, 250 кадров/сек (1536 SPF)
    Битовая глубина : 16 бит
    Метод сжатия : С потерями
    Размер потока : 25, 5 Мбайт (4%)
    ServiceKind/String : Complete Main
    Default : Да
    Forced : Нет

    Скриншоты для ознакомления



    Все одноименные релизы в Клубе
    Время раздачи: 24/7 (круглосуточно) (до появления первых 3-5 скачавших)

    Онлайн видео Москва-Владивосток (2019) WEBRip [H.264



    Москва-Владивосток (2019) WEBRip [H.264/1080p-LQ] [PR]
    Рейтинг →
     (голосов: 1, оценка 3/5, голосовать можно 1 раз )

    Другие торренты по теме:

  • Хоккей. КХЛ 2016-2017. Адмирал (Владивосток) - Динамо (Москва) (24.08.2016) HDTV [H.264 / 1080i-LQ]


    • Комментарии (0):

      Информация

      Информация

        Посетители, находящиеся в группе Гости, не могут оставлять комментарии в данной новости.

        ↓ Меню




        ↓ Опрос

        Вы добавили сайт в закладки?
        Да
        Нет


        Популярное